Алекс Лютый. Дело сирот [3 сезон: 1-10 серии из 10] (2024) WEBRip от Generalfilm | КПК

Reply to topic
 
Author Message

mjjhec ®

Gender: Male

Longevity: 5 years 8 months

Posts: 2216

Location: СССР

Post 24-Jun-2024 12:32

[Quote]

Алекс Лютый. Дело сирот 3 Год выпуска: 2024
Жанр: История, детектив, триллер
Выпущено: Россия, Кинокомпания «Амедиа Продакшн» по заказу НТВ
Режиссер: Владимир Нахабцев (мл.)
В ролях: Антон Хабаров, Екатерина Олькина, Эмилия Спивак, Владимир Ярош, Никита Касьяненко, Дмитрий Лебедев (II), Сергей Мардарь, Елена Руфанова, Анна Соколович, Сергей Галич, Валерий Кухарешин, Николай Краснопёров, Владислав Комаров, Оксана Скакун, Даниил Кокин, Александр Удальцов, Андрей Шаповал, Дмитрий Русаков, Саша Орлова, Олег Флеер, Анжелика Плакина, Владимир Кудрявцев (III), Александр Халюта, Наталья Свешникова, Екатерина Зорина, Данил Коловский, Матвей Тимонин, Прасковья Шапиро, Богдан Хорохорин, Юлия Иванова (III), Екатерина Яковлева-Карельская, Ольга Яковлева.
О фильме: После самоубийства бывшего руководителя айнзацгруппы СС Манкевича подполковник Андрей Елисеев берётся за розыск военных преступников из его группы. Распутывая цепь загадочных событий прошлого и настоящего, Елисеев вместе с сотрудниками отдела устанавливает, что в августе 1941-го в здании музея располагался отряд карателей Манкевича, где пряталась группа детей из детского дома, брошенная при эвакуации. После соседства с отрядом Манкевича дети исчезли. При помощи секретного архива Алекса Лютого Елисеев узнаёт, кто входил в состав отряда Манкевича. Но все оставшиеся в живых члены отряда гибнут при загадочных обстоятельствах.
Качество: WEBRip | КПК
Видео: H.264, 640x272 (2.35:1), 25 fps, 400 kb/s
Аудио: AAC, 48 kHz, 2 ch, 128 kb/s
Продолжительность: 10 x ~00:51:00
Перевод: Не требуется

Скриншоты


MediaInfo

Complete name : F:\Rip\Aleks.Lyutyj. Delo.sirot.S03.by.mjjhec\Aleks.Lyutyj. Delo.sirot.S03.E03.2024.WEBRip.mp4
Format : MPEG-4
Format profile : Base Media
Codec ID : isom (isom/avc1)
File size : 198 MiB
Duration : 52 min 0 s
Overall bit rate mode : Variable
Overall bit rate : 532 kb/s
Frame rate : 25.000 FPS
Encoded date : 2024-06-23 15:12:17 UTC
Tagged date : 2024-06-23 15:12:17 UTC
Video
ID : 1
Format : AVC
Format/Info : Advanced Video Codec
Format profile : High@L4.1
Format settings : CABAC / 14 Ref Frames
Format settings, CABAC : Yes
Format settings, Reference : 14 frames
Codec ID : avc1
Codec ID/Info : Advanced Video Coding
Duration : 52 min 0 s
Bit rate : 400 kb/s
Maximum bit rate : 1 357 kb/s
Width : 640 pixels
Height : 272 pixels
Display aspect ratio : 2.35:1
Frame rate mode : Constant
Frame rate : 25.000 FPS
Color space : YUV
Chroma subsampling : 4:2:0
Bit depth : 8 bits
Scan type : Progressive
Bits/(Pixel*Frame) : 0.092
Stream size : 149 MiB (75%)
Writing library : x264 core 125 r2208 d9d2288
Encoding settings : cabac=1 / ref=14 / deblock=1:-1:-1 / analyse=0x3:0x113 / me=umh / subme=10 / psy=1 / psy_rd=1.00:0.10 / mixed_ref=1 / me_range=32 / chroma_me=1 / trellis=2 / 8x8dct=1 / cqm=0 / deadzone=21,11 / fast_pskip=0 / chroma_qp_offset=-3 / threads=6 / lookahead_threads=1 / sliced_threads=0 / nr=0 / decimate=0 / interlaced=0 / bluray_compat=0 / constrained_intra=0 / bframes=11 / b_pyramid=2 / b_adapt=2 / b_bias=0 / direct=3 / weightb=1 / open_gop=0 / weightp=2 / keyint=240 / keyint_min=24 / scenecut=40 / intra_refresh=0 / rc=2pass / mbtree=0 / bitrate=400 / ratetol=1.0 / qcomp=0.60 / qpmin=0 / qpmax=69 / qpstep=4 / cplxblur=20.0 / qblur=0.5 / ip_ratio=1.40 / pb_ratio=1.30 / aq=1:1.00
Encoded date : 2024-06-23 15:12:17 UTC
Tagged date : 2024-06-23 15:12:22 UTC
Codec configuration box : avcC
Audio
ID : 2
Format : AAC LC
Format/Info : Advanced Audio Codec Low Complexity
Codec ID : mp4a-40-2
Duration : 52 min 0 s
Bit rate mode : Variable
Bit rate : 128 kb/s
Maximum bit rate : 133 kb/s
Channel(s) : 2 channels
Channel layout : L R
Sampling rate : 48.0 kHz
Frame rate : 46.875 FPS (1024 SPF)
Compression mode : Lossy
Stream size : 47.6 MiB (24%)
Encoded date : 2024-06-23 15:12:21 UTC
Tagged date : 2024-06-23 15:12:22 UTC
Релиз от:
[Profile] [PM]

Otkritka

Gender: Female

Longevity: 2 years 8 months

Posts: 62

Post 24-Jun-2024 18:38 (after 6 hours)

[Quote]

Спасибо !!! aa
[Profile] [PM]
Display posts:    
Reply to topic

Current time is: 23-Jul 17:54

All times are UTC + 3



You cannot post new topics in this forum
You cannot reply to topics in this forum
You cannot edit your posts in this forum
You cannot delete your posts in this forum
You cannot vote in polls in this forum
You cannot attach files in this forum
You cannot download files in this forum