Чистые [1-6 серии из 8] (2024) WEBRip от Files-x

Reply to topic
 
Author Message

patriot67 ®

Gender: Male

Longevity: 4 years 8 months

Posts: 325

Post 24-Jun-2024 14:59

[Quote]

Чистые Год выпуска: 2024
Жанр: Триллер, драма
Выпущено: Россия, Кинокомпания "Всемирные Русские Студии"
Режиссер: Николай Хомерики
В ролях: Фёдор Бондарчук, Виктория Исакова, Софья Синицына, Диана Милютина, Даниил Воробьёв, Никита Кологривый, Борис Каморзин, Евгений Харитонов, Риналь Мухаметов, Марк Эйдельштейн
О фильме: Петербург, 1903 год. Мир роскоши и досуга для мужчин, мир страха и подчинения для женщин. Ксения и Стеша работают в подпольном доме терпимости под контролем благообразной и безжалостной дамы. Девушки продают мужчинам тело, чувства, флирт и иллюзию любви. Кажется, кроме красоты у них ничего нет. На самом же деле им доступна тайная сила — чистота души и желание свободы. И этой силой они смогут изменить все.

Качество: WEBRip
Видео: XviD, ~ 1600 Кбит/с, 704x352, 25 кадр/с
Аудио: AC3, 6 ch, 384 Кбит/с
Продолжительность: 6 x ~ 00:43:00
Перевод: Не требуется
Cубтитры: Нет

Скриншоты


MediaInfo

Общее
Полное имя : D:\films\Чистые.2024.WEB-DLRip.Files-x\02. Чистые.2024.WEB-DLRip.Files-x.avi
Формат : AVI
Формат/Информация : Audio Video Interleave
Настройки формата : BitmapInfoHeader / WaveFormatEx
Размер файла : 613 Мбайт
Продолжительность : 43 м. 0 с.
Общий поток : 1 993 Кбит/сек
Частота кадров : 25,000 кадров/сек
Программа кодирования : VirtualDubMod 1.5.10.3 | www.virtualdub-fr.org || (build 2550/release)
Библиотека кодирования : VirtualDubMod build 2550/release
Видео
Идентификатор : 0
Формат : MPEG-4 Visual
Профиль формата : Advanced Simple@L5
Настройки формата : BVOP1 / Custom Matrix
Параметр BVOP формата : 1
Параметр QPel формата : Нет
Параметр GMC формата : Без точки перехода
Параметр матрицы формата : Выборочная
Идентификатор кодека : XVID
Идентификатор кодека/Подсказка : XviD
Продолжительность : 43 м. 0 с.
Битрейт : 1 600 Кбит/сек
Ширина : 704 пикселя
Высота : 352 пикселя
Соотношение сторон : 2,000
Частота кадров : 25,000 кадров/сек
Цветовое пространство : YUV
Субдискретизация насыщенности : 4:2:0
Битовая глубина : 8 бит
Тип развёртки : Прогрессивная
Метод сжатия : С потерями
Бит/(Пиксели*Кадры) : 0.258
Размер потока : 492 Мбайт (80%)
Библиотека кодирования : XviD 73
Аудио
Идентификатор : 1
Формат : AC-3
Формат/Информация : Audio Coding 3
Коммерческое название : Dolby Digital
Идентификатор кодека : 2000
Продолжительность : 43 м. 0 с.
Вид битрейта : Постоянный
Битрейт : 384 Кбит/сек
Каналы : 6 каналов
Channel layout : L R C LFE Ls Rs
Частота : 48,0 КГц
Частота кадров : 31,250 кадров/сек (1536 SPF)
Метод сжатия : С потерями
Размер потока : 118 Мбайт (19%)
Выравнивание : Разделение по промежуткам
Продолжительность промежутка : 40 мс. (1,00 видеокадр)
Время предзагрузки промежутка : 500 мс.
Service kind : Complete Main

Внимание! Раздача ведётся путём добавления новых серий

Раздача ведётся путём добавления новых серий, при каждом добавлении создаётся новый торрент. Чтобы начать докачку новой серии, пользователям необходимо сделать следующее:
- Остановить скачивание.
- Удалить старый торрент у себя из клиента (старые серии удалять не надо).
- Скачать новый торрент и запустить его у себя в клиенте вместо старого, при этом указать клиенту путь в старую папку куда и должно происходить скачивание новых серий.
Ваш клиент при этом должен произвести хеширование (проверку) старой папки (если не производит сам - помогите ему сделать это), и будет докачивать только те серии которых у вас ещё нет. Старые серии при этом не удаляются, а продолжают раздаваться!
Релиз от:

Release was prepared by RG Files-x

[Profile] [PM]

patriot67 ®

Gender: Male

Longevity: 4 years 8 months

Posts: 325

Post 13-Jul-2024 20:16 (after 19 days)

[Quote]

+ 5 серия
так же замена звука во всех сериях на 5.1
[Profile] [PM]
Display posts:    
Reply to topic

Current time is: 23-Jul 17:54

All times are UTC + 3



You cannot post new topics in this forum
You cannot reply to topics in this forum
You cannot edit your posts in this forum
You cannot delete your posts in this forum
You cannot vote in polls in this forum
You cannot attach files in this forum
You cannot download files in this forum