Стражи Отчизны [3 сезон: 1-16 серии из 16] (2023-2024) SATRip от Files-x

Reply to topic
 
Author Message

Nicodem ®

Gender: Male

Longevity: 5 years 8 months

Posts: 1444

Post 30-Jun-2024 03:08

[Quote]

Стражи Отчизны
Год выпуска: 2023-2024
Жанр: Детектив, боевик, шпионский
Выпущено: Россия, Телерадиокомпания "Петербург"
Режиссер: Александр Картохин
В ролях: Сергей Воробьёв (II), Яков Шамшин, Дарья Седойкина, Пётр Журавлёв, Геннадий Казачков, Антон Наумов, Вероника Шмелева, Евгений Михайленко, Дмитрий Олейник, Илья Мозговой, Михаил Николаев, Виталий Татаринович, Анастасия Закирова, Андрей Кузнецов (XI), Алла Еминцева, Саша Афган
О фильме: Спящие агенты должны помешать проведению операции "Октопус". Её детали пока не ясны, но последствия могут привести к масштабной катастрофе. Иностранные враги завербовали сотни россиян и с помощью секретных технологий сделали из них неуязвимых убийц. По своей сути все эти люди – такие же спящие агенты, которые живут обычной жизнью, пока встроенный в их тело чип не даст команду на уничтожение противника. Именно с ними и будут бороться "Стражи" на протяжении всех эпизодов...

Качество: SATRip
Видео: XviD, ~ 1609 Кбит/с, 720x400, 25 кадр/с
Аудио: AC3, 2 ch, 192 Кбит/с
Продолжительность: 16 x ~ 00:42:00
Перевод: Не требуется
Субтитры: Нет

Скриншоты



MediaInfo

General
Complete name : C:017.Стражи Отчизны.s03.E01 (Фильм № 1 часть 1).(2023).SATRip.by.Nicodem.Files-x.avi
Format : AVI
Format/Info : Audio Video Interleave
File size : 551 MiB
Duration : 42mn 30s
Overall bit rate : 1 811 Kbps
Writing application : VirtualDubMod 1.5.10.3 | www.virtualdub-fr.org || (build 2550/release)
Writing library : VirtualDubMod build 2550/release
Video
ID : 0
Format : MPEG-4 Visual
Format profile : Advanced Simple@L5
Format settings, BVOP : 1
Format settings, QPel : No
Format settings, GMC : No warppoints
Format settings, Matrix : Custom
Codec ID : XVID
Codec ID/Hint : XviD
Duration : 42mn 30s
Bit rate : 1 609 Kbps
Width : 720 pixels
Height : 400 pixels
Display aspect ratio : 16:9
Frame rate : 25.000 fps
Color space : YUV
Chroma subsampling : 4:2:0
Bit depth : 8 bits
Scan type : Progressive
Compression mode : Lossy
Bits/(Pixel*Frame) : 0.224
Stream size : 489 MiB (89%)
Writing library : XviD 73
Audio
ID : 1
Format : AC-3
Format/Info : Audio Coding 3
Mode extension : CM (complete main)
Codec ID : 2000
Duration : 42mn 30s
Bit rate mode : Constant
Bit rate : 192 Kbps
Channel(s) : 2 channels
Channel positions : Front: L R
Sampling rate : 48.0 KHz
Bit depth : 16 bits
Compression mode : Lossy
Stream size : 58.4 MiB (11%)
Alignment : Split accross interleaves
Interleave, duration : 40 ms (1.00 video frame)
Interleave, preload duration : 500 ms

Содержание

Фильм № 1 Наследие Вавилова
Фильм № 2 Чёрный стриж
Фильм № 3 Споры Третьего Рейха
Фильм № 4 Колесо Аль-Арма
Фильм № 5 Код крови
Фильм № 6 Око дракона
Фильм № 7 Эльза
Фильм № 8 Октопус

Раздача ведётся путём добавления новых серий

Внимание! Раздача ведётся путём добавления новых серий; при каждом добавлении создаётся новый торрент.
Чтобы начать докачку новой серии, пользователям необходимо сделать следующее:
1. Остановить скачивание;
2. Удалить старый торрент у себя из клиента (старые серии удалять не надо);
3. Скачать новый торрент и запустить его у себя в клиенте вместо старого, при этом указать клиенту путь в старую папку куда и должно происходить скачивание новых серий. Ваш клиент при этом должен произвести хеширование (проверку) старой папки и будет докачивать только те серии, которых у вас ещё нет. Старые серии при этом не удаляются, а продолжают раздаваться! Eсли вы уже удалили старые серии, то предотвратить повторную закачку старых серий можно, отжав галочку в соответствующих местах при запуске нового торрента.
Релиз от:

Release was prepared by RG Files-x

[Profile] [PM]
Display posts:    
Reply to topic

Current time is: 23-Jul 16:44

All times are UTC + 3



You cannot post new topics in this forum
You cannot reply to topics in this forum
You cannot edit your posts in this forum
You cannot delete your posts in this forum
You cannot vote in polls in this forum
You cannot attach files in this forum
You cannot download files in this forum