Музыкальная интуиция [4 сезон: 1-5 выпуск из 11] (2024) WEBRip 720p от Files-x

Reply to topic
 
Author Message

bond74 ®

Gender: Male

Longevity: 5 years 8 months

Posts: 2440

Post 30-Jun-2024 13:22

[Quote]

Музыкальная интуиция Год выпуска: 2024
Жанр: ТВ-шоу, юмор
Выпущено: Россия, ТНТ
Ведущий: Азамат Мусагалиев
Описание: Уникальное шоу, в котором 10 незнакомцев делают вид, что умеют петь, хотя на самом деле это утверждение правдиво лишь наполовину. Двум звёздным командам из комиков и музыкантов предстоит провести расследование, чтобы отличить певцов от лжецов и выиграть главный приз, который затем отправится в благотворительные фонды. В новом сезоне свои силы в детективно-музыкальной игре попробуют Дима Билан, Люся Чеботина, Карина Кросс, Анна Хилькевич, Роман Каграманов, Митя Фомин, Ольга Бузова, Стас Костюшкин, Ида Галич, Анатолий Цой, Пелагея и многие-многие другие.

Качество: WEBRip 720p
Видео: MPEG-4 AVC, ~ 3000 Кбит/с, 1280x720, 25 кадр/с
Аудио: AC3, 2 ch, 192 Кбит/с
Продолжительность: 2 х ~ 01:31:00
Перевод: Не требуется
Субтитры: Нет

Скриншоты



MediaInfo

Общее
Уникальный идентификатор : 210773683462429224351465352455405240059 (0x9E9188EBBA1E2A368FB3C97942E4FEFB)
Полное имя : D:\films\ Музыкальная интуиция.S04.2024.WEB-DL 720p.Files-x\02. Музыкальная интуиция.S04.2024.WEB-DL 720p.Files-x.mkv
Формат : Matroska
Версия формата : Version 4
Размер файла : 2,01 Гбайт
Продолжительность : 1 ч. 30 м.
Режим общего битрейта : Переменный
Общий поток : 3 189 Кбит/сек
Частота кадров : 25,000 кадров/сек
Дата кодирования : 2024-06-30 08:18:20 UTC
Программа кодирования : mkvmerge v7.8.0 ('River Man') 32bit built on Apr 3 2015 12:11:22
Библиотека кодирования : libebml v1.3.1 + libmatroska v1.4.2
Видео
Идентификатор : 1
Формат : AVC
Формат/Информация : Advanced Video Codec
Профиль формата : High@L4.1
Настройки формата : CABAC / 4 Ref Frames
Параметр CABAC формата : Да
Параметр RefFrames формата : 4 кадра
Идентификатор кодека : V_MPEG4/ISO/AVC
Продолжительность : 1 ч. 30 м.
Вид битрейта : Переменный
Битрейт : 3 000 Кбит/сек
Ширина : 1 280 пикселей
Высота : 720 пикселей
Соотношение сторон : 16:9
Режим частоты кадров : Постоянный
Частота кадров : 25,000 кадров/сек
Цветовое пространство : YUV
Субдискретизация насыщенности : 4:2:0
Битовая глубина : 8 бит
Тип развёртки : Прогрессивная
Бит/(Пиксели*Кадры) : 0.130
Размер потока : 1,89 Гбайт (94%)
Default : Да
Forced : Нет
Цветовой диапазон : Limited
Основные цвета : BT.709
Характеристики трансфера : BT.709
Аудио
Идентификатор : 2
Формат : AC-3
Формат/Информация : Audio Coding 3
Коммерческое название : Dolby Digital
Идентификатор кодека : A_AC3
Продолжительность : 1 ч. 30 м.
Вид битрейта : Постоянный
Битрейт : 192 Кбит/сек
Каналы : 2 канала
Channel layout : L R
Частота : 48,0 КГц
Частота кадров : 31,250 кадров/сек (1536 SPF)
Метод сжатия : С потерями
Задержка видео : -120 мс.
Размер потока : 124 Мбайт (6%)
Service kind : Complete Main
Default : Да
Forced : Нет

Внимание! Раздача ведётся путём добавления новых серий

Раздача ведётся путём добавления новых серий, при каждом добавлении создаётся новый торрент. Чтобы начать докачку новой серии, пользователям необходимо сделать следующее:
- Остановить скачивание.
- Удалить старый торрент у себя из клиента (старые серии удалять не надо).
- Скачать новый торрент и запустить его у себя в клиенте вместо старого, при этом указать клиенту путь в старую папку куда и должно происходить скачивание новых серий.
Ваш клиент при этом должен произвести хеширование (проверку) старой папки (если не производит сам - помогите ему сделать это), и будет докачивать только те серии которых у вас ещё нет. Старые серии при этом не удаляются, а продолжают раздаваться!
Релиз от:

Release was prepared by RG Files-x

[Profile] [PM]
Display posts:    
Reply to topic

Current time is: 23-Jul 16:42

All times are UTC + 3



You cannot post new topics in this forum
You cannot reply to topics in this forum
You cannot edit your posts in this forum
You cannot delete your posts in this forum
You cannot vote in polls in this forum
You cannot attach files in this forum
You cannot download files in this forum