Морозова [2 сезон: 1-50 серии из 50] (2018) HDTVRip от Files-x

Reply to topic
 
Author Message

Nicodem ®

Gender: Male

Longevity: 8 months 5 days

Posts: 178

Post 18-Nov-2018 02:24

[Quote]

Морозова
Год выпуска: 2018
Жанр: Детектив, криминальный фильм, мелодрама
Выпущено: Россия, "DIXI-TV"
Режиссер: Иван Щёголев, Сергей Лесогоров
В ролях: Тара Амирханова, Дмитрий Мазуров, Дмитрий Блохин, Дарья Петриченко, Марианна Шульц, Иван Мамонов, Валерий Сторожик, Виктория Фишер, Татьяна Лянник, Дмитрий Бедерин, Дмитрий Блажко, Игорь Емелин, Иван Куколев, Михаил Химичев, Юлиания Селиванова, Александр Волков (III), Григорий Шариков, Юрий Маслак, Любовь Сергеева, Андрей Гурьянов, Алексей Фатеев, Филипп Бажин, Дмитрий Воронцов, Андрей Якимов, Дмитрий Цуканов, Валерия Сухачева, Екатерина Танцура, Лиана Осипова
О фильме: В новом сезоне майор юстиции, талантливый эксперт-криминалист Морозова продолжает расследовать преступления благодаря уликам и следам, которые она и ее команда обнаруживают на месте преступления, и восстанавливает по ним картину происшествия. Однако если на службе равных Морозовой нет, то ее личная жизнь – сплошное разочарование. Попытка построить в первом сезоне отношения с Павлом не увенчалась успехом, и Анна совсем уж было поставила на себе крест. Но когда преступник похищает Ксюшу, дочь Морозовой, Анна встречается с майором Ворониным, однокурсником по Академии, а ныне сотрудником Следственного Комитета, который был влюблен в нее еще в студенчестве. Кроме того, у начальника УМВД Родионовой появляется новый заместитель – подполковник Маевский, красавец-мужчина. Дисциплинарная провинность, из-за которой его сослали в Калугу, лишь придает ему шарм. Маевский серьезно решил приударить за неприступной Морозовой. А тут еще олигарх Туманов… В итоге Морозова оказывается перед непростым выбором. Вдобавок появляется еще одна серьезная проблема. Благодаря своей принципиальности, она перешла дорогу городской бизнес-элите, сросшейся с административной верхушкой. Морозову решено устранить…

Качество: HDTVRip
Видео: XviD, ~ 1500 Кбит/с, 720x400, 25 Кадр/с
Аудио: AC3, 2 ch, 192 Кбит/с
Продолжительность: 50 x ~ 00:48:00
Перевод: Не требуется
Cубтитры: нет

Скриншоты


MediaInfo

Общее
Полное имя : C:\Users\DOM\Downloads\Морозова 2 сезон.2018.HDTVRiip.Files-x\01.Морозова 2 сезон.2018.HDTVRiip.Files-x.avi
Формат : AVI
Формат/Информация : Audio Video Interleave
Размер файла : 597 Мбайт
Продолжительность : 49 м.
Общий поток : 1701 Кбит/сек
Программа кодирования : VirtualDubMod 1.5.10.3 | www.virtualdub-fr.org || (build 2550/release)
Библиотека кодирования : VirtualDubMod build 2550/release
Видео
Идентификатор : 0
Формат : MPEG-4 Visual
Профиль формата : Advanced Simple@L5
Параметр BVOP формата : 1
Параметр QPel формата : Нет
Параметр GMC формата : Без точки перехода
Параметр матрицы формата : Выборочная
Идентификатор кодека : XVID
Идентификатор кодека/Подсказка : XviD
Продолжительность : 49 м.
Битрейт : 1500 Кбит/сек
Ширина : 720 пикс.
Высота : 400 пикс.
Соотношение сторон : 16:9
Частота кадров : 25,000 кадр/сек
Цветовое пространство : YUV
Подвыборка цветности : 4:2:0
Битовая глубина : 8 бит
Тип развёртки : Прогрессивная
Метод сжатия : С потерями
Бит/(Пиксели*Кадры) : 0.208
Размер потока : 526 Мбайт (88%)
Библиотека кодирования : XviD 73
Аудио
Идентификатор : 1
Формат : AC-3
Формат/Информация : Audio Coding 3
Расширение режима : CM (complete main)
Идентификатор кодека : 2000
Продолжительность : 49 м.
Вид битрейта : Постоянный
Битрейт : 192 Кбит/сек
Каналы : 2 канала
Расположение каналов : Front: L R
Частота : 48,0 КГц
Битовая глубина : 16 бит
Метод сжатия : С потерями
Размер потока : 67,3 Мбайт (11%)
Выравнивание : Разделение по промежуткам
Продолжительность промежутка : 40 мс. (1,00 видеокадр)
Время предзагрузки промежутка : 500 ms

Содержание

2 СЕЗОН
01 серия "Ясновидящий"
02 серия "Шкатулка с секретом"
03 серия "Дом в центре"
04 серия "Планшет"
05 серия "Ювелирка"
06 серия "Инкунабула"
07 серия "На перепутье"
08 серия "Инерция мышления"
09 серия "Немодный приговор"
10 серия "Обмен"
11 серия "Игрок"
12 серия "Должок"
13 серия "Мать и сын"
14 серия "Адвокат дьявола"
15 серия "Часы"
16 серия "Уголь"
17 серия "Три подруги"
18 серия "Отец и сын"
19 серия "Очень простая история"
20 серия "Пихтовый лак"
21 серия "Голод"
22 серия "Антидот"
23 серия "Те, кого нет"
24 серия "Дорожное происшествие"
25 серия "На переходе"
26 серия "Родная кровь"
27 серия "Чужая жена"
28 серия "Средство от давления"
29 серия "Все свои"
30 серия "Осечка"
31 серия "Саквояж"
32 серия "Краска"
33 серия "Радужная форель"
34 серия "Повторная экспертиза"
35 серия "Черная вдова"
36 серия "Лютик голубой"
37 серия "Право на жизнь"
38 серия "Право на смерть"
39 серия "Последнее свидание"
40 серия "Подмена"
41 серия "Одержимость"
42 серия "Обычный день"
43 серия "Фотомодель"
44 серия "Удар в сердце"
45 серия "Последствия добра"
46 серия "Тень сомнения"
47 серия "Печать зла"
48 серия "Оборотень"
49 серия "Мутная история"
50 серия "Идеальное решение"
Релиз от:
[Profile] [PM]
Display posts:    
Reply to topic

Current time is: 23-Jul 11:50

All times are UTC + 3



You cannot post new topics in this forum
You cannot reply to topics in this forum
You cannot edit your posts in this forum
You cannot delete your posts in this forum
You cannot vote in polls in this forum
You cannot attach files in this forum
You cannot download files in this forum