Морозова [1 сезон: 1-50 серии из 50] (2017) HDTVRip от Files-x

Reply to topic
 
Author Message

Nicodem ®

Gender: Male

Longevity: 7 months

Posts: 178

Post 18-Nov-2018 02:01

[Quote]

Морозова
Год выпуска: 2017
Жанр: Детектив, криминальный фильм, мелодрама
Выпущено: Россия, "DIXI-TV"
Режиссер: Иван Щёголев, Сергей Лесогоров, Олег Галин
В ролях: Тара Амирханова, Дмитрий Мазуров, Андрей Носков, Дмитрий Блохин, Татьяна Лянник, Пётр Грезев, Кирилл Снегирёв, Дарья Корнева, Лёля Баранова, Александр Коротков (II), Александр Левин (II), Анастасия Бухарцева, Александр Касаткин (II), Олег Тарасов (II), Юлия Носова, Андрей Москвичёв, Максим Карушев, Дарья Петриченко, Валерий Сторожик, Михаил Скачков, Виктория Фишер, Юлия Гусак, Филипп Бажин, Олег Жуков, Марианна Шульц, Ольга Верещагина, Дмитрий Блажко, Александра Сержантова, Светлана Малюкова, Александр Галибин, Евгения Чиркова, Кристина Колес, Александра Артемьева, Малика Лапшина, Оксана Скоропад, Владимир Курцеба, Пётр Каледин, Георгий Тополага, Владимир Шульга, Кристина Русанова, Яна Фомичёва, Андрей Мехонцев, Александр Армер, Андрей Харыбин, Ольга Тимофеева (II), Роман Гапанюк, Сергей Новиков, Сергей Радьков, Светлана Вишнякова (II), Никита Григорьев, Мария Кудрявцева, Наталья Панюшева
О фильме: Анна Морозова (Тара Амирханова) - начальник отдела традиционных экспертиз областного экспертно-криминалистического центра г. Калуги. Предмет ее исследования – улики и следы на месте преступления. В свое время Анна Михайловна прошла весь путь от стажера до начальника отдела, поэтому разбирается во всем. Дотошный характер Морозовой давно стал «притчей во языцех» как для коллег, так и для начальства. Зам. начальника областного УМВД Родионова (Марианна Шульц) знает: если дело попало в руки Морозовой, значит, жди сюрпризов. Ведь она непременно раскопает какую-нибудь новую версию, подвергая сомнению самые, казалось бы, очевидные факты. Есть в управлении и следователь, с которым Морозова очень любит работать – майор Авдеев (Дмитрий Блохин). Он вдумчивый и надежный, хотя и слегка флегматичный. Нередко к раскрытию уголовных дел в Москве Морозову привлекает ее учитель – Валерий Зайцев (Александр Галибин). Он был бы рад, если бы Морозова, эксперт от Бога, переехала из провинциальной Калуги в Москву. Но уговорить ее никак не удается. Сердцем Морозова накрепко прикипела к Калуге.

Качество: HDTVRip
Видео: XviD, ~ 1586 Кбит/с, 720x400, 25 Кадр/с
Аудио: AC3, 2 ch, 192 Кбит/с
Продолжительность: 50 x ~ 00:48:00
Перевод: Не требуется
Cубтитры: нет

Скриншоты


MediaInfo

Общее
Полное имя : C:\Users\DOM\Downloads\MoroZova.2017.HDTVRip.Files-x\01.MoroZova.2017.HDTVRip.Files-x.avi
Формат : AVI
Формат/Информация : Audio Video Interleave
Размер файла : 601 Мбайт
Продолжительность : 46 м.
Общий поток : 1787 Кбит/сек
Программа кодирования : VirtualDubMod 1.5.10.3 | www.virtualdub-fr.org || (build 2550/release)
Библиотека кодирования : VirtualDubMod build 2550/release
Видео
Идентификатор : 0
Формат : MPEG-4 Visual
Профиль формата : Advanced Simple@L5
Параметр BVOP формата : 1
Параметр QPel формата : Нет
Параметр GMC формата : Без точки перехода
Параметр матрицы формата : Выборочная
Идентификатор кодека : XVID
Идентификатор кодека/Подсказка : XviD
Продолжительность : 46 м.
Битрейт : 1586 Кбит/сек
Ширина : 720 пикс.
Высота : 400 пикс.
Соотношение сторон : 16:9
Частота кадров : 25,000 кадр/сек
Цветовое пространство : YUV
Подвыборка цветности : 4:2:0
Битовая глубина : 8 бит
Тип развёртки : Прогрессивная
Метод сжатия : С потерями
Бит/(Пиксели*Кадры) : 0.220
Размер потока : 533 Мбайт (89%)
Библиотека кодирования : XviD 73
Аудио
Идентификатор : 1
Формат : AC-3
Формат/Информация : Audio Coding 3
Расширение режима : CM (complete main)
Идентификатор кодека : 2000
Продолжительность : 46 м.
Вид битрейта : Постоянный
Битрейт : 192 Кбит/сек
Каналы : 2 канала
Расположение каналов : Front: L R
Частота : 48,0 КГц
Битовая глубина : 16 бит
Метод сжатия : С потерями
Размер потока : 64,5 Мбайт (11%)
Выравнивание : Разделение по промежуткам
Продолжительность промежутка : 40 мс. (1,00 видеокадр)
Время предзагрузки промежутка : 500 ms

Содержание

1 СЕЗОН
01 серия "Ничего личного"
02 серия "Стечение обстоятельств"
03 серия "Парашютист"
04 серия "Бархатная кожа"
05 серия "Цена красоты"
06 серия "Стрельба навскидку"
07 серия "Допинг"
08 серия "Пикник"
09 серия "Театр"
10 серия "Поражение"
11 серия "Ночное дежурство"
12 серия "Вечеринка"
13 серия "Дочь"
14 серия "Люцифер"
15 серия "Мама"
16 серия "Старая гвардия"
17 серия "Квартирный вопрос"
18 серия "Без тормозов"
19 серия "Дон Гуан"
20 серия "Страсти по Гомеру"
21 серия "Припомнить все"
22 серия "Игра"
23 серия "Неудачное ограбление"
24 серия "Страшный сон"
25 серия "Несчастливая монета"
26 серия "Утренний бриз"
27 серия "Шанс"
28 серия "Кукла"
29 серия "Во спасение"
30 серия "В огне не горят"
31 серия "Некогда ждать"
32 серия "Бензоколонка"
33 серия "Масло"
34 серия "По совести"
35 серия "Цифровая эпоха"
36 серия "Орел или решка"
37 серия "Удар"
38 серия "Спасая кошку"
39 серия "Нежная смерть"
40 серия "Блондинка"
41 серия "Четвертая жертва"
42 серия "Игры в куклы"
43 серия "Зодиак"
44 серия "Круг судьбы"
45 серия "Бетховен"
46 серия "Провокация"
47 серия "Слишком явные улики"
48 серия "Производственный брак"
49 серия "Ошибка"
50 серия "Закон парных случаев"
Релиз от:
[Profile] [PM]
Display posts:    
Reply to topic

Current time is: 18-Jun 08:53

All times are UTC + 3



You cannot post new topics in this forum
You cannot reply to topics in this forum
You cannot edit your posts in this forum
You cannot delete your posts in this forum
You cannot vote in polls in this forum
You cannot attach files in this forum
You cannot download files in this forum