Морозова [2 сезон: 1-50 серия из 50] (2018) HDTVRip-AVC от Files-x

Reply to topic
 
Author Message

Серый1779 ®

Gender: Male

Longevity: 9 months 8 days

Posts: 522

Location: Украина

Post 16-Nov-2018 12:16

[Quote]

Морозова
Год выпуска: 2018
Жанр: Детектив, криминал, мелодрама
Выпущено: Россия, "DIXI-TV"
Режиссер: Иван Щёголев, Сергей Лесогоров
В ролях: Тара Амирханова, Дмитрий Мазуров, Андрей Носков, Дмитрий Блохин, Татьяна Лянник, Пётр Грезев, Кирилл Снегирёв, Дарья Корнева, Ольга Баранова, Александр Коротков (II), Александр Левин (II), Анастасия Бухарцева, Александр Касаткин (II), Олег Тарасов (II), Юлия Носова, Андрей Москвичёв, Максим Карушев, Дарья Петриченко, Валерий Сторожик
О фильме: Анна Морозова (Тара Амирханова) - начальник отдела традиционных экспертиз областного экспертно-криминалистического центра г. Калуги. Предмет ее исследования – улики и следы на месте преступления. В свое время Анна Михайловна прошла весь путь от стажера до начальника отдела, поэтому разбирается во всем. Дотошный характер Морозовой давно стал «притчей во языцех» как для коллег, так и для начальства. Зам. начальника областного УМВД Родионова (Марианна Шульц) знает: если дело попало в руки Морозовой, значит, жди сюрпризов. Ведь она непременно раскопает какую-нибудь новую версию, подвергая сомнению самые, казалось бы, очевидные факты. Есть в управлении и следователь, с которым Морозова очень любит работать – майор Авдеев (Дмитрий Блохин). Он вдумчивый и надежный, хотя и слегка флегматичный. Нередко к раскрытию уголовных дел в Москве Морозову привлекает ее учитель – Валерий Зайцев (Александр Галибин). Он был бы рад, если бы Морозова, эксперт от Бога, переехала из провинциальной Калуги в Москву. Но уговорить ее никак не удается. Сердцем Морозова накрепко прикипела к Калуге.
Качество: HDTVRip-AVC
Видео: MPEG-4 AVC, ~ 2000 Кбит/с, 1024x576, 25 кадр/с
Аудио: AC3, 2 ch, 192 Кбит/с
Продолжительность: 50 х ~ 00:48:00
Перевод: Не требуется
Cубтитры: нет

Скриншоты


MediaInfo

Общее
Уникальный идентификатор : 193550567582607825220481980654153735738 (0x919C7BBF3027B8C6B68142302A019E3A)
Полное имя : F:\Morozova.s02.(2018).HDTVRip.(AVC).Files-x\01.Морозова.s02.(2018).HDTVRip.(AVC).by.Серый1779.Files-x.mkv
Формат : Matroska
Версия формата : Version 2
Размер файла : 769 Мбайт
Продолжительность : 49 м. 1 с.
Общий поток : 2194 Кбит/сек
Дата кодирования : UTC 2018-10-01 18:48:27
Программа кодирования : mkvmerge v7.8.0 ('River Man') 32bit built on Apr 3 2015 12:11:22
Библиотека кодирования : libebml v1.3.1 + libmatroska v1.4.2
Видео
Идентификатор : 1
Формат : AVC
Формат/Информация : Advanced Video Codec
Профиль формата : High@L4.1
Настройки формата : CABAC / 9 Ref Frames
Параметр CABAC формата : Да
Параметр RefFrames формата : 9 кадров
Идентификатор кодека : V_MPEG4/ISO/AVC
Продолжительность : 49 м. 1 с.
Битрейт : 2000 Кбит/сек
Ширина : 1024 пикселя
Высота : 576 пикселей
Соотношение сторон : 16:9
Режим частоты кадров : Постоянный
Частота кадров : 25,000 кадров/сек
Цветовое пространство : YUV
Субдискретизация насыщенности : 4:2:0
Битовая глубина : 8 бит
Тип развёртки : Прогрессивная
Бит/(Пиксели*Кадры) : 0.136
Размер потока : 687 Мбайт (89%)
Библиотека кодирования : x264 core 146 r2538 121396c
Настройки программы : cabac=1 / ref=9 / deblock=1:-2:-1 / analyse=0x3:0x133 / me=umh / subme=9 / psy=1 / psy_rd=1.00:0.15 / mixed_ref=1 / me_range=32 / chroma_me=1 / trellis=2 / 8x8dct=1 / cqm=0 / deadzone=21,11 / fast_pskip=0 / chroma_qp_offset=-3 / threads=18 / lookahead_threads=3 / sliced_threads=0 / nr=0 / decimate=1 / interlaced=0 / bluray_compat=0 / constrained_intra=0 / bframes=9 / b_pyramid=2 / b_adapt=2 / b_bias=0 / direct=1 / weightb=1 / open_gop=0 / weightp=2 / keyint=250 / keyint_min=25 / scenecut=40 / intra_refresh=0 / rc=2pass / mbtree=0 / bitrate=2000 / ratetol=1.0 / qcomp=0.60 / qpmin=0 / qpmax=69 / qpstep=4 / cplxblur=20.0 / qblur=0.5 / ip_ratio=1.40 / pb_ratio=1.30 / aq=2:1.00
Default : Да
Forced : Нет
Цветовой диапазон : Limited
Основные цвета : BT.709
Характеристики трансфера : BT.709
Коэффициенты матрицы : BT.709
Аудио
Идентификатор : 2
Формат : AC-3
Формат/Информация : Audio Coding 3
Параметр Endianness формата : Big
Идентификатор кодека : A_AC3
Продолжительность : 49 м. 1 с.
Вид битрейта : Постоянный
Битрейт : 192 Кбит/сек
Каналы : 2 канала
Расположение каналов : Front: L R
Частота : 48,0 КГц
Частота кадров : 31,250 кадров/сек (1536 SPF)
Битовая глубина : 16 бит
Метод сжатия : С потерями
Размер потока : 67,3 Мбайт (9%)
ServiceKind/String : Complete Main
Default : Да
Forced : Нет
Релиз от:


Last edited by Серый1779 on 2018-11-22 16:46; edited 4 times in total
[Profile] [PM]
Display posts:    
Reply to topic

Current time is: 20-Aug 20:20

All times are UTC + 3



You cannot post new topics in this forum
You cannot reply to topics in this forum
You cannot edit your posts in this forum
You cannot delete your posts in this forum
You cannot vote in polls in this forum
You cannot attach files in this forum
You cannot download files in this forum