Хищник / The Predator (2018) WEB-DL 1080p

Reply to topic
 
Author Message

sergey82 ®

Gender: Male

Longevity: 6 months 28 days

Posts: 160

Location: Украина

Post 27-Nov-2018 18:48

[Quote]

Хищник / The Predator
Год выпуска: 2018
Жанр: Ужасы, фантастика, боевик, триллер, приключения
Выпущено: США, Канада, Twentieth Century Fox, Davis Entertainment, TSG Entertainment
Режиссер: Шейн Блэк
В ролях: Бойд Холбрук, Треванте Роудс, Джейкоб Трамбле, Кигэн-Майкл Ки, Оливия Манн, Стерлинг К. Браун, Томас Джейн, Элфи Оуэн-Аллен, Августо Агилера, Джейк Бьюзи
О фильме: Главный герой, бывший морпех, обнаруживает злобную инопланетную расу на Земле, но никто не верит ему, что эти твари существуют. Его сын-аутист, которого все обижают в школе, становится ключевой фигурой в схватке с Хищниками, поскольку мальчик умеет невероятно быстро учить языки и, судя по всему, сможет понять пришельцев.
Качество: WEB-DL 1080p
Видео: MPEG-4 AVC, 7278 Кбит/с, 1920x800
Аудио: Русский (AC3, 2 ch, 192 Кбит/с), английский (E-AC3, 6 ch, 640 Кбит/с)
Продолжительность: 01:46:58
Перевод: Профессиональный (многоголосый закадровый) [HDRezka Studio]
Cубтитры: английские

Скриншоты



МediaInfo

Общее
Уникальный идентификатор : 22570191886626855836061656112656250763 (0x10FADC600B0B60C26AD1DFB9F20B778B)
Полное имя : D:\The.Predator.2018.1080p.AMZN.WEB-DL.Rus.Eng.mkv
Формат : Matroska
Версия формата : Version 4 / Version 2
Размер файла : 6,06 Гбайт
Продолжительность : 1 ч. 46 м.
Общий поток : 8112 Кбит/сек
Название фильма : Хищник / The Predator (2018)
Дата кодирования : UTC 2018-11-27 09:38:56
Программа кодирования : mkvmerge v27.0.0 ('Metropolis') 64-bit
Библиотека кодирования : libebml v1.3.6 + libmatroska v1.4.9
Видео
Идентификатор : 1
Формат : AVC
Формат/Информация : Advanced Video Codec
Профиль формата : High@L4
Настройки формата : CABAC / 4 Ref Frames
Параметр CABAC формата : Да
Параметр RefFrames формата : 4 кадра
Идентификатор кодека : V_MPEG4/ISO/AVC
Продолжительность : 1 ч. 46 м.
Битрейт : 7119 Кбит/сек
Ширина : 1920 пикселей
Высота : 800 пикселей
Соотношение сторон : 2,40:1
Режим частоты кадров : Постоянный
Частота кадров : 23,976 (24000/1001) кадра/сек
Цветовое пространство : YUV
Субдискретизация насыщенности : 4:2:0
Битовая глубина : 8 бит
Тип развёртки : Прогрессивная
Бит/(Пиксели*Кадры) : 0.193
Размер потока : 5,32 Гбайт (88%)
Заголовок : The.Predator.2018.1080p.AMZN.WEB-DL.Rus.Eng
Default : Да
Forced : Нет
Цветовой диапазон : Limited
Основные цвета : BT.709
Характеристики трансфера : BT.709
Коэффициенты матрицы : BT.709
Аудио #1
Идентификатор : 2
Формат : AC-3
Формат/Информация : Audio Coding 3
Идентификатор кодека : A_AC3
Продолжительность : 1 ч. 46 м.
Вид битрейта : Постоянный
Битрейт : 192 Кбит/сек
Каналы : 2 канала
Расположение каналов : Front: L R
Частота : 48,0 КГц
Частота кадров : 31,250 кадров/сек (1536 SPF)
Битовая глубина : 16 бит
Метод сжатия : С потерями
Размер потока : 147 Мбайт (2%)
Заголовок : MVO | HDRezka Studio
Язык : Russian
ServiceKind/String : Complete Main
Default : Да
Forced : Нет
Аудио #2
Идентификатор : 3
Формат : E-AC-3
Формат/Информация : Enhanced Audio Coding 3
Идентификатор кодека : A_EAC3
Продолжительность : 1 ч. 46 м.
Вид битрейта : Постоянный
Битрейт : 640 Кбит/сек
Каналы : 6 каналов
Расположение каналов : Front: L C R, Side: L R, LFE
Частота : 48,0 КГц
Частота кадров : 187,500 кадров/сек (256 SPF)
Метод сжатия : С потерями
Размер потока : 490 Мбайт (8%)
Язык : English
ServiceKind/String : Complete Main
Default : Нет
Forced : Нет
Текст #1
Идентификатор : 4
Формат : UTF-8
Идентификатор кодека : S_TEXT/UTF8
Идентификатор кодека/Информация : UTF-8 Plain Text
Заголовок : Full
Язык : English
Default : Нет
Forced : Нет
Текст #2
Идентификатор : 5
Формат : UTF-8
Идентификатор кодека : S_TEXT/UTF8
Идентификатор кодека/Информация : UTF-8 Plain Text
Заголовок : SDH
Язык : English
Default : Нет
Forced : Нет
Меню
00:00:00.000 : en:Chapter 01
00:02:01.705 : en:Chapter 02
00:08:33.930 : en:Chapter 03
00:09:46.334 : en:Chapter 04
00:13:48.659 : en:Chapter 05
00:16:10.174 : en:Chapter 06
00:17:37.427 : en:Chapter 07
00:20:22.466 : en:Chapter 08
00:25:02.954 : en:Chapter 09
00:27:37.273 : en:Chapter 10
00:31:11.070 : en:Chapter 11
00:36:24.341 : en:Chapter 12
00:38:01.645 : en:Chapter 13
00:39:43.538 : en:Chapter 14
00:44:35.704 : en:Chapter 15
00:49:16.901 : en:Chapter 16
00:53:19.602 : en:Chapter 17
00:58:35.500 : en:Chapter 18
00:59:59.500 : en:Chapter 19
01:03:17.280 : en:Chapter 20
01:06:37.812 : en:Chapter 21
01:09:52.006 : en:Chapter 22
01:12:27.619 : en:Chapter 23
01:15:56.619 : en:Chapter 24
01:18:53.670 : en:Chapter 25
01:21:25.613 : en:Chapter 26
01:23:09.924 : en:Chapter 27
01:27:09.787 : en:Chapter 28
01:30:56.221 : en:Chapter 29
01:32:15.799 : en:Chapter 30
01:35:09.389 : en:Chapter 31
01:40:01.180 : en:Chapter 32
[Profile] [PM]
Display posts:    
Reply to topic

Current time is: 17-Jun 10:57

All times are UTC + 3



You cannot post new topics in this forum
You cannot reply to topics in this forum
You cannot edit your posts in this forum
You cannot delete your posts in this forum
You cannot vote in polls in this forum
You cannot attach files in this forum
You cannot download files in this forum