Хищник / The Predator (2018) BDRip от GeneralFilm | Лицензия

Reply to topic
 
Author Message

vsobbol ®

Gender: Male

Longevity: 1 year

Posts: 366

Location: Донецк

Post 27-Nov-2018 23:53

[Quote]

Хищник / The Predator
Год выпуска: 2018
Жанр: Ужасы, фантастика, боевик, триллер, приключения
Выпущено: США, Канада, Twentieth Century Fox, Davis Entertainment, TSG Entertainment
Режиссер: Шейн Блэк
В ролях: Бойд Холбрук, Треванте Роудс, Джейкоб Трамбле, Кигэн-Майкл Ки, Оливия Манн, Стерлинг К. Браун, Томас Джейн, Элфи Оуэн-Аллен, Августо Агилера, Джейк Бьюзи
О фильме: Главный герой, бывший морпех, обнаруживает злобную инопланетную расу на Земле, но никто не верит ему, что эти твари существуют. Его сын-аутист, которого все обижают в школе, становится ключевой фигурой в схватке с Хищниками, поскольку мальчик умеет невероятно быстро учить языки и, судя по всему, сможет понять пришельцев.

Качество: HDRip
Видео: XviD build 73, 688x288 (2.40:1), 23.976 fps, 838 Kbps (0.176 bit/pixel)
Аудио: 48.0 kHz, MP3, 2/0 ch, 128 kbps
Продолжительность: 01:46:56
Перевод: Дублированный | Лицензия
Cубтитры: Русские форсированные (вшитые)

Скриншоты

MediaInfo

General
Complete name : D:\Razdachi\Hishnik.2018.XviD.BDRip.745Mb.GeneralFilm.avi
Format : AVI
Format/Info : Audio Video Interleave
File size : 746 MiB
Duration : 1 h 46 min
Overall bit rate : 975 kb/s
Writing application : VirtualDubMod 1.5.10.3 | www.virtualdub-fr.org || (build 2550/release)
Writing library : VirtualDubMod build 2550/release
Video
ID : 0
Format : MPEG-4 Visual
Format profile : Advanced Simple@L5
Format settings, BVOP : 1
Format settings, QPel : No
Format settings, GMC : No warppoints
Format settings, Matrix : Custom
Codec ID : XVID
Codec ID/Hint : XviD
Duration : 1 h 46 min
Bit rate : 838 kb/s
Width : 688 pixels
Height : 288 pixels
Display aspect ratio : 2.40:1
Frame rate : 23.976 (24000/1001) FPS
Color space : YUV
Chroma subsampling : 4:2:0
Bit depth : 8 bits
Scan type : Progressive
Compression mode : Lossy
Bits/(Pixel*Frame) : 0.176
Stream size : 641 MiB (86%)
Writing library : XviD 73
Audio
ID : 1
Format : MPEG Audio
Format version : Version 1
Format profile : Layer 3
Codec ID : 55
Codec ID/Hint : MP3
Duration : 1 h 46 min
Bit rate mode : Constant
Bit rate : 128 kb/s
Channel(s) : 2 channels
Sampling rate : 48.0 kHz
Compression mode : Lossy
Stream size : 97.9 MiB (13%)
Alignment : Aligned on interleaves
Interleave, duration : 42 ms (1.00 video frame)
Interleave, preload duratio : 504 ms
Writing library : LAME3.99r
Encoding settings : -m s -V 4 -q 2 -lowpass 17 -b 128
Релиз от:
[Profile] [PM]
Display posts:    
Reply to topic

Current time is: 10-Dec 17:42

All times are UTC + 3



You cannot post new topics in this forum
You cannot reply to topics in this forum
You cannot edit your posts in this forum
You cannot delete your posts in this forum
You cannot vote in polls in this forum
You cannot attach files in this forum
You cannot download files in this forum