Хищник / The Predator (2018) BDRip 720p | Лицензия

Reply to topic
 
Author Message

Monk ®

Gender: Male

Longevity: 5 months 8 days

Posts: 5440

Location: Казань

Post 30-Nov-2018 16:11

[Quote]

Хищник / The Predator Год выпуска: 2018
Жанр: Ужасы, фантастика, боевик, триллер, приключения
Выпущено: США, Канада, Twentieth Century Fox, Davis Entertainment, TSG Entertainment
Режиссер: Шейн Блэк
В ролях: Бойд Холбрук, Треванте Роудс, Джейкоб Трамбле, Кигэн-Майкл Ки, Оливия Манн, Стерлинг К. Браун, Томас Джейн, Элфи Оуэн-Аллен, Августо Агилера, Джейк Бьюзи
О фильме: Главный герой, бывший морпех, обнаруживает злобную инопланетную расу на Земле, но никто не верит ему, что эти твари существуют. Его сын-аутист, которого все обижают в школе, становится ключевой фигурой в схватке с Хищниками, поскольку мальчик умеет невероятно быстро учить языки и, судя по всему, сможет понять пришельцев.

Качество: BDRip 720p
Видео: MPEG-4 AVC, 8300 Кбит/с, 1280x536
Аудио: Русский (DTS, 6 ch, 768 Кбит/с), (AC3, 6 ch, 448 Кбит/с), (АС3, 6 ch, 640 Кбит/с), украинский (AC3, 6 ch, 448 Кбит/с), английский (DTS, 6 ch, 1510 Кбит/с)
Продолжительность: 01:46:56
Перевод: Дублированный [Лицензия], авторский [Юрий Сербин]
Субтитры: Русские, английские, украинские

Скриншоты



MediaInfo

Формат : Matroska
Версия формата : Version 4
Размер файла : 9,05 Гбайт
Продолжительность : 1 ч. 46 м.
Общий поток : 12,1 Мбит/сек
Дата кодирования : UTC 2018-12-26 10:47:54
Программа кодирования : mkvmerge v20.0.0 ('I Am The Sun') 64-bit
Библиотека кодирования : libebml v1.3.5 + libmatroska v1.4.8
Обложка : Yes
Attachments : cover.jpg
Видео
Идентификатор : 1
Формат : AVC
Формат/Информация : Advanced Video Codec
Профиль формата : High@L4.1
Настройки формата : CABAC / 12 Ref Frames
Параметр CABAC формата : Да
Параметр RefFrames формата : 12 кадров
Идентификатор кодека : V_MPEG4/ISO/AVC
Продолжительность : 1 ч. 46 м.
Битрейт : 8300 Кбит/сек
Ширина : 1280 пикселей
Высота : 536 пикселей
Соотношение сторон : 2,40:1
Режим частоты кадров : Постоянный
Частота кадров : 23,976 (24000/1001) кадра/сек
Цветовое пространство : YUV
Субдискретизация насыщенности : 4:2:0
Битовая глубина : 8 бит
Тип развёртки : Прогрессивная
Бит/(Пиксели*Кадры) : 0.505
Размер потока : 6,20 Гбайт (68%)
Библиотека кодирования : x264 core 152 r2851kMod ba24899
Настройки программы : cabac=1 / ref=12 / deblock=1:-3:-3 / analyse=0x3:0x133 / me=umh / subme=11 / psy=1 / fade_compensate=0.00 / psy_rd=1.05:0.00 / mixed_ref=1 / me_range=48 / chroma_me=1 / trellis=2 / 8x8dct=1 / cqm=0 / deadzone=21,11 / fast_pskip=0 / chroma_qp_offset=-2 / threads=6 / lookahead_threads=1 / sliced_threads=0 / nr=0 / decimate=1 / interlaced=0 / bluray_compat=0 / constrained_intra=0 / bframes=10 / b_pyramid=2 / b_adapt=2 / b_bias=0 / direct=3 / weightb=1 / open_gop=0 / weightp=2 / keyint=250 / keyint_min=23 / scenecut=40 / intra_refresh=0 / rc=2pass / mbtree=0 / bitrate=8300 / ratetol=1.0 / qcomp=0.70 / qpmin=0 / qpmax=69 / qpstep=4 / cplxblur=20.0 / qblur=0.5 / ip_ratio=1.30 / pb_ratio=1.20 / aq=1:0.80 / zones=24,540,b=1.2
Язык : English
Default : Да
Forced : Нет
Цветовой диапазон : Limited
Коэффициенты матрицы : BT.709
Аудио #1
Идентификатор : 2
Формат : DTS
Формат/Информация : Digital Theater Systems
Идентификатор кодека : A_DTS
Продолжительность : 1 ч. 46 м.
Вид битрейта : Постоянный
Битрейт : 768 Кбит/сек
Каналы : 6 каналов
Channel layout : C L R Ls Rs LFE
Частота : 48,0 КГц
Частота кадров : 93,750 кадра/сек (512 SPF)
Битовая глубина : 24 бит
Метод сжатия : С потерями
Размер потока : 587 Мбайт (6%)
Заголовок : Дубляж EUR
Язык : Russian
Default : Да
Forced : Нет
Аудио #2
Идентификатор : 3
Формат : AC-3
Формат/Информация : Audio Coding 3
Коммерческое название : Dolby Digital
Идентификатор кодека : A_AC3
Продолжительность : 1 ч. 46 м.
Вид битрейта : Постоянный
Битрейт : 448 Кбит/сек
Каналы : 6 каналов
Channel layout : L R C LFE Ls Rs
Частота : 48,0 КГц
Частота кадров : 31,250 кадров/сек (1536 SPF)
Битовая глубина : 16 бит
Метод сжатия : С потерями
Размер потока : 343 Мбайт (4%)
Заголовок : Ю. Сербин
Язык : Russian
ServiceKind/String : Complete Main
Default : Нет
Forced : Нет
Аудио #3
Идентификатор : 4
Формат : AC-3
Формат/Информация : Audio Coding 3
Коммерческое название : Dolby Digital
Идентификатор кодека : A_AC3
Продолжительность : 1 ч. 46 м.
Вид битрейта : Постоянный
Битрейт : 640 Кбит/сек
Каналы : 6 каналов
Channel layout : L R C LFE Ls Rs
Частота : 48,0 КГц
Частота кадров : 31,250 кадров/сек (1536 SPF)
Битовая глубина : 16 бит
Метод сжатия : С потерями
Размер потока : 490 Мбайт (5%)
Заголовок : AVO М. Яроцкий
Язык : Russian
ServiceKind/String : Complete Main
Default : Нет
Forced : Нет
Аудио #4
Идентификатор : 5
Формат : AC-3
Формат/Информация : Audio Coding 3
Коммерческое название : Dolby Digital
Идентификатор кодека : A_AC3
Продолжительность : 1 ч. 46 м.
Вид битрейта : Постоянный
Битрейт : 448 Кбит/сек
Каналы : 6 каналов
Channel layout : L R C LFE Ls Rs
Частота : 48,0 КГц
Частота кадров : 31,250 кадров/сек (1536 SPF)
Битовая глубина : 16 бит
Метод сжатия : С потерями
Размер потока : 343 Мбайт (4%)
Заголовок : Дубляж EUR
Язык : Ukrainian
ServiceKind/String : Complete Main
Default : Нет
Forced : Нет
Аудио #5
Идентификатор : 6
Формат : DTS ES
Формат/Информация : Digital Theater Systems
Коммерческое название : DTS-ES Matrix
Идентификатор кодека : A_DTS
Продолжительность : 1 ч. 46 м.
Вид битрейта : Постоянный
Битрейт : 1509 Кбит/сек
Каналы : 6 каналов
Channel(s)_Original : 7 каналов
Channel layout : C L R Ls Rs Cb LFE
Частота : 48,0 КГц
Частота кадров : 93,750 кадра/сек (512 SPF)
Битовая глубина : 24 бит
Метод сжатия : С потерями
Размер потока : 1,13 Гбайт (12%)
Язык : English
Default : Нет
Forced : Нет
Текст #1
Идентификатор : 7
Формат : UTF-8
Идентификатор кодека : S_TEXT/UTF8
Идентификатор кодека/Информация : UTF-8 Plain Text
Продолжительность : 1 ч. 45 м.
Битрейт : 1 бит/сек
ElementCount : 22
Размер потока : 1,02 Кбайт (0%)
Заголовок : Forced
Язык : Russian
Default : Нет
Forced : Нет
Текст #2
Идентификатор : 8
Формат : UTF-8
Идентификатор кодека : S_TEXT/UTF8
Идентификатор кодека/Информация : UTF-8 Plain Text
Продолжительность : 1 ч. 45 м.
Битрейт : 70 бит/сек
ElementCount : 1270
Размер потока : 54,4 Кбайт (0%)
Язык : Russian
Default : Нет
Forced : Нет
Текст #3
Идентификатор : 9
Формат : UTF-8
Идентификатор кодека : S_TEXT/UTF8
Идентификатор кодека/Информация : UTF-8 Plain Text
Продолжительность : 1 ч. 38 м.
Битрейт : 1 бит/сек
ElementCount : 17
Размер потока : 799 байт (0%)
Заголовок : Forced
Язык : Ukrainian
Default : Нет
Forced : Нет
Текст #4
Идентификатор : 10
Формат : UTF-8
Идентификатор кодека : S_TEXT/UTF8
Идентификатор кодека/Информация : UTF-8 Plain Text
Продолжительность : 1 ч. 45 м.
Битрейт : 69 бит/сек
ElementCount : 1269
Размер потока : 53,4 Кбайт (0%)
Язык : Ukrainian
Default : Нет
Forced : Нет
Текст #5
Идентификатор : 11
Формат : UTF-8
Идентификатор кодека : S_TEXT/UTF8
Идентификатор кодека/Информация : UTF-8 Plain Text
Продолжительность : 2 с. 461 мс.
Битрейт : 149 бит/сек
ElementCount : 1
Размер потока : 46,0 байт (0%)
Заголовок : Forced
Язык : English
Default : Нет
Forced : Нет
Текст #6
Идентификатор : 12
Формат : UTF-8
Идентификатор кодека : S_TEXT/UTF8
Идентификатор кодека/Информация : UTF-8 Plain Text
Продолжительность : 1 ч. 37 м.
Битрейт : 49 бит/сек
ElementCount : 1364
Размер потока : 35,6 Кбайт (0%)
Язык : English
Default : Нет
Forced : Нет
Текст #7
Идентификатор : 13
Формат : UTF-8
Идентификатор кодека : S_TEXT/UTF8
Идентификатор кодека/Информация : UTF-8 Plain Text
Продолжительность : 1 ч. 38 м.
Битрейт : 59 бит/сек
ElementCount : 1705
Размер потока : 42,9 Кбайт (0%)
Заголовок : SDH
Язык : English
Default : Нет
Forced : Нет
Текст #8
Идентификатор : 14
Формат : UTF-8
Идентификатор кодека : S_TEXT/UTF8
Идентификатор кодека/Информация : UTF-8 Plain Text
Продолжительность : 1 ч. 38 м.
Битрейт : 123 бит/сек
ElementCount : 1705
Размер потока : 89,4 Кбайт (0%)
Заголовок : SDH-Colored
Язык : English
Default : Нет
Forced : Нет
Меню
00:00:00.000 : :00:00:00.000
00:02:00.704 : :00:02:00.704
00:08:32.929 : :00:08:32.929
00:09:45.335 : :00:09:45.335
00:13:47.660 : :00:13:47.660
00:16:09.177 : :00:16:09.177
00:17:36.430 : :00:17:36.430
00:20:21.470 : :00:20:21.470
00:25:01.959 : :00:25:01.959
00:27:36.280 : :00:27:36.280
00:31:10.077 : :00:31:10.077
00:36:23.348 : :00:36:23.348
00:38:00.653 : :00:38:00.653
00:39:42.547 : :00:39:42.547
00:44:34.714 : :00:44:34.714
00:49:15.911 : :00:49:15.911
00:53:18.612 : :00:53:18.612
00:58:34.511 : :00:58:34.511
00:59:58.512 : :00:59:58.512
01:03:16.292 : :01:03:16.292
01:06:36.826 : :01:06:36.826
01:09:51.020 : :01:09:51.020
01:12:26.634 : :01:12:26.634
01:15:55.634 : :01:15:55.634
01:18:52.686 : :01:18:52.686
01:21:24.630 : :01:21:24.630
01:23:08.942 : :01:23:08.942
01:27:08.807 : :01:27:08.807
01:30:55.241 : :01:30:55.241
01:32:14.821 : :01:32:14.821
01:35:08.411 : :01:35:08.411
01:40:00.203 : :01:40:00.203
[Profile] [PM]
Display posts:    
Reply to topic

Current time is: 23-Apr 09:59

All times are UTC + 3



You cannot post new topics in this forum
You cannot reply to topics in this forum
You cannot edit your posts in this forum
You cannot delete your posts in this forum
You cannot vote in polls in this forum
You cannot attach files in this forum
You cannot download files in this forum