Жена с того света [1-4 серия из 4] (2018) SATRip-AVC от Files-x

Reply to topic
 
Author Message

papa1951deda ®

Gender: Male

Longevity: 7 months 5 days

Posts: 256

Location: Казахстан

Post 28-Nov-2018 04:42

[Quote]

Жена с того света Год выпуска: 2018
Жанр: Мелодрама
Выпущено: Украина, Кинокомпания "Киевтелефильм"
Режиссёр: Валерий Ибрагимов
В ролях: Юлия Агафонова, Алиса Гребенщикова, Филипп Бледный, Михаил Химичев, Светлана Павлова, Игорь Петрусенко, Мария Тарасова
О фильме: На работе по-крупному подставляют старшего бухгалтера Инну. Её обвиняют в краже огромной суммы. Лишь случайность спасает женщину от тюрьмы - по ошибке все считают Инну погибшей в аварии. "Смерть" показывает Инне истинное положение дел: "любимый" муж Николай изменяет ей. Женщине горько осознавать, что её предали те, кому она так доверяла, что она не может быть рядом со своими детьми: Денисом и Лизой. Ведь если Инна "воскреснет", то сразу сядет в тюрьму. Подруга Катя подаёт ей идею: воспользоваться своим "умершим" статусом, чтобы отомстить предателям и заодно попробовать вернуть своё доброе имя...
Качество: SATRip-AVC
Видео: MPEG 4 AVC, ~ 1500 Кбит/с, 720x400, 25 кадр/с
Аудио: AC3, 2 ch, 192 Кбит/с
Продолжительность: 4 x ~ 00:46:00
Перевод: Не требуется
Субтитры: Украинские

Скриншоты

MediaInfo

General
Unique ID : 173063217762650935297529182257541325702 (0x8232C369FECB9ECDBD25460E8994A386)
Complete name : D:\моё видио\Zena s tovo sveta.(2018).SATRip.(AVC).Files-x\01.Zena.s.tovo.sveta.(2018).SATRip.(AVC).by.Серый1779.Files-x.mkv
Format : Matroska
Format version : Version 2
File size : 553 MiB
Duration : 45mn 38s
Overall bit rate : 1 694 Kbps
Encoded date : UTC 2018-04-15 16:18:45
Writing application : mkvmerge v7.8.0 ('River Man') 32bit built on Apr 3 2015 12:11:22
Writing library : libebml v1.3.1 + libmatroska v1.4.2
Video
ID : 1
Format : AVC
Format/Info : Advanced Video Codec
Format profile : High@L4.1
Format settings, CABAC : Yes
Format settings, ReFrames : 9 frames
Codec ID : V_MPEG4/ISO/AVC
Duration : 45mn 38s
Bit rate : 1 500 Kbps
Width : 720 pixels
Height : 400 pixels
Display aspect ratio : 16:9
Frame rate mode : Constant
Frame rate : 25.000 fps
Color space : YUV
Chroma subsampling : 4:2:0
Bit depth : 8 bits
Scan type : Progressive
Bits/(Pixel*Frame) : 0.208
Stream size : 479 MiB (87%)
Writing library : x264 core 146 r2538 121396c
Encoding settings : cabac=1 / ref=9 / deblock=1:-3:-3 / analyse=0x3:0x133 / me=umh / subme=9 / psy=1 / psy_rd=1.00:0.15 / mixed_ref=1 / me_range=32 / chroma_me=1 / trellis=2 / 8x8dct=1 / cqm=0 / deadzone=21,11 / fast_pskip=0 / chroma_qp_offset=-3 / threads=18 / lookahead_threads=3 / sliced_threads=0 / nr=0 / decimate=1 / interlaced=0 / bluray_compat=0 / constrained_intra=0 / bframes=9 / b_pyramid=2 / b_adapt=2 / b_bias=0 / direct=1 / weightb=1 / open_gop=0 / weightp=2 / keyint=250 / keyint_min=25 / scenecut=40 / intra_refresh=0 / rc=2pass / mbtree=0 / bitrate=1500 / ratetol=1.0 / qcomp=0.60 / qpmin=0 / qpmax=69 / qpstep=4 / cplxblur=20.0 / qblur=0.5 / ip_ratio=1.40 / pb_ratio=1.30 / aq=2:1.00
Default : Yes
Forced : No
Color primaries : BT.601 PAL
Transfer characteristics : BT.470 System B, BT.470 System G
Matrix coefficients : BT.601
Audio
ID : 2
Format : AC-3
Format/Info : Audio Coding 3
Mode extension : CM (complete main)
Format settings, Endianness : Big
Codec ID : A_AC3
Duration : 45mn 38s
Bit rate mode : Constant
Bit rate : 192 Kbps
Channel(s) : 2 channels
Channel positions : Front: L R
Sampling rate : 48.0 KHz
Bit depth : 16 bits
Compression mode : Lossy
Stream size : 62.7 MiB (11%)
Default : Yes
Forced : No
Релиз от:
[Profile] [PM]
Display posts:    
Reply to topic

Current time is: 25-Jun 23:54

All times are UTC + 3



You cannot post new topics in this forum
You cannot reply to topics in this forum
You cannot edit your posts in this forum
You cannot delete your posts in this forum
You cannot vote in polls in this forum
You cannot attach files in this forum
You cannot download files in this forum