Жена с того света [1-4 серии из 4] (2018) WEB-DLRip от Files-x

Reply to topic
 
Author Message

Nicodem ®

Gender: Male

Longevity: 11 months

Posts: 253

Post 28-Nov-2018 15:32

[Quote]

Жена с того света
Год выпуска: 2018
Жанр: Мелодрама, детектив
Выпущено: Украина, Кинокомпания "Киевтелефильм"
Режиссер: Валерий Ибрагимов
В ролях: Алиса Гребенщикова, Юлия Агафонова, Филипп Бледный, Михаил Химичев, Светлана Павлова, Игорь Петрусенко, Богдан Юсипчук, Татьяна Михина (II), Ольга Ларина, Елена Хижная, Олег Замятин, Мария Тарасова (II), Максим Костюнин, Виталий Челканов, Анастасия Цымбалару, Анна Абрамёнок
О фильме: На работе по-крупному подставляют старшего бухгалтера Инну. Её обвиняют в краже огромной суммы. Лишь случайность спасает женщину от тюрьмы - по ошибке все считают Инну погибшей в аварии. "Смерть" показывает Инне истинное положение дел: "любимый" муж Николай изменяет ей. Женщине горько осознавать, что её предали те, кому она так доверяла, что она не может быть рядом со своими детьми: Денисом и Лизой. Ведь если Инна "воскреснет", то сразу сядет в тюрьму. Подруга Катя подаёт ей идею: воспользоваться своим "умершим" статусом, чтобы отомстить предателям и заодно попробовать вернуть своё доброе имя...
Качество: WEB-DLRip
Видео: XviD, ~ 1911 Кбит/с, 720x400, 25 кадр/с
Аудио: AC3, 2 ch, 192 Кбит/с
Продолжительность: 4 х 00:56:20
Перевод: Не требуется
Cубтитры: нет

Скриншоты



MediaInfo

General
Complete name : C:\Users\DOM\Desktop\ВИДЕО\Жена с того света.(2018).WEB-DLRip.by.Nicodem.Files-x\01.Жена с того света.(2018).WEB-DLRip.by.Nicodem.Files-x.avi
Format : AVI
Format/Info : Audio Video Interleave
File size : 702 MiB
Duration : 46mn 25s
Overall bit rate : 2 113 Kbps
Writing application : VirtualDubMod 1.5.10.3 | www.virtualdub-fr.org || (build 2550/release)
Writing library : VirtualDubMod build 2550/release
Video
ID : 0
Format : MPEG-4 Visual
Format profile : Advanced Simple@L5
Format settings, BVOP : 1
Format settings, QPel : No
Format settings, GMC : No warppoints
Format settings, Matrix : Custom
Codec ID : XVID
Codec ID/Hint : XviD
Duration : 46mn 25s
Bit rate : 1 911 Kbps
Width : 720 pixels
Height : 400 pixels
Display aspect ratio : 16:9
Frame rate : 25.000 fps
Color space : YUV
Chroma subsampling : 4:2:0
Bit depth : 8 bits
Scan type : Progressive
Compression mode : Lossy
Bits/(Pixel*Frame) : 0.265
Stream size : 635 MiB (90%)
Writing library : XviD 73
Audio
ID : 1
Format : AC-3
Format/Info : Audio Coding 3
Mode extension : CM (complete main)
Codec ID : 2000
Duration : 46mn 25s
Bit rate mode : Constant
Bit rate : 192 Kbps
Channel(s) : 2 channels
Channel positions : Front: L R
Sampling rate : 48.0 KHz
Bit depth : 16 bits
Compression mode : Lossy
Stream size : 63.8 MiB (9%)
Alignment : Split accross interleaves
Interleave, duration : 40 ms (1.00 video frame)
Interleave, preload duration : 500 ms
Релиз от:
[Profile] [PM]
Display posts:    
Reply to topic

Current time is: 18-Oct 05:29

All times are UTC + 3



You cannot post new topics in this forum
You cannot reply to topics in this forum
You cannot edit your posts in this forum
You cannot delete your posts in this forum
You cannot vote in polls in this forum
You cannot attach files in this forum
You cannot download files in this forum