Жена с того света [1-4 серии из 4] (2018) WEB-DL 720p от Files-x

Reply to topic
 
Author Message

Nicodem ®

Gender: Male

Longevity: 1 year

Posts: 312

Post 28-Nov-2018 14:49

[Quote]

Жена с того света
Год выпуска: 2018
Жанр: Мелодрама, детектив
Выпущено: Украина, Кинокомпания "Киевтелефильм"
Режиссер: Валерий Ибрагимов
В ролях: Алиса Гребенщикова, Юлия Агафонова, Филипп Бледный, Михаил Химичев, Светлана Павлова, Игорь Петрусенко, Богдан Юсипчук, Татьяна Михина (II), Ольга Ларина, Елена Хижная, Олег Замятин, Мария Тарасова (II), Максим Костюнин, Виталий Челканов, Анастасия Цымбалару, Анна Абрамёнок
О фильме: На работе по-крупному подставляют старшего бухгалтера Инну. Её обвиняют в краже огромной суммы. Лишь случайность спасает женщину от тюрьмы - по ошибке все считают Инну погибшей в аварии. "Смерть" показывает Инне истинное положение дел: "любимый" муж Николай изменяет ей. Женщине горько осознавать, что её предали те, кому она так доверяла, что она не может быть рядом со своими детьми: Денисом и Лизой. Ведь если Инна "воскреснет", то сразу сядет в тюрьму. Подруга Катя подаёт ей идею: воспользоваться своим "умершим" статусом, чтобы отомстить предателям и заодно попробовать вернуть своё доброе имя...
Качество: WEB-DL 720p
Видео: MPEG-4 AVC, ~ 1758 Кбит/с, 1280x720, 25 кадр/с
Аудио: AC3, 2 ch, 192 Кбит/с
Продолжительность: 4 х 00:56:20
Перевод: Не требуется
Cубтитры: нет

Скриншоты




MediaInfo

General
Unique ID : 152833507526258275211493647016771277997 (0x72FAA9B1863615E14F2AEB91766154AD)
Complete name : C:\Users\DOM\Desktop\ВИДЕО\Жена с того света.(2018).WEB-DL (720p).by.Nicodem.Files-x\01.Жена с того света.(2018).WEB-DL (720p).by.Nicodem.Files-x.mkv
Format : Matroska
File size : 661 MiB
Duration : 46mn 25s
Overall bit rate : 1 990 Kbps
Writing application : Lavf56.36.100
Writing library : Lavf56.36.100
Video
ID : 1
Format : AVC
Format/Info : Advanced Video Codec
Format profile : High@L3.1
Format settings, CABAC : Yes
Format settings, ReFrames : 3 frames
Codec ID : V_MPEG4/ISO/AVC
Duration : 46mn 25s
Bit rate : 1 758 Kbps
Width : 1 280 pixels
Height : 720 pixels
Display aspect ratio : 16:9
Frame rate : 25.000 fps
Color space : YUV
Chroma subsampling : 4:2:0
Bit depth : 8 bits
Scan type : Progressive
Bits/(Pixel*Frame) : 0.076
Stream size : 584 MiB (88%)
Language : English
Audio
ID : 2
Format : AC-3
Format/Info : Audio Coding 3
Mode extension : CM (complete main)
Codec ID : A_AC3
Duration : 46mn 25s
Bit rate mode : Constant
Bit rate : 192 Kbps
Channel(s) : 2 channels
Channel positions : Front: L R
Sampling rate : 48.0 KHz
Bit depth : 16 bits
Compression mode : Lossy
Stream size : 63.8 MiB (10%)
Language : English / un
Релиз от:
[Profile] [PM]
Display posts:    
Reply to topic

Current time is: 10-Dec 04:00

All times are UTC + 3



You cannot post new topics in this forum
You cannot reply to topics in this forum
You cannot edit your posts in this forum
You cannot delete your posts in this forum
You cannot vote in polls in this forum
You cannot attach files in this forum
You cannot download files in this forum