Форс-мажоры / Suits [7 сезон: 1-16 серии из 16] (2017) WEB-DLRip от GeneralFilm | NewStudio

Reply to topic
 
Author Message

Starik60 ®

Gender: Male

Longevity: 9 months 8 days

Posts: 148

Location: Москва, Россия

Post 18-Nov-2018 14:25

[Quote]

Форс-мажоры (Костюмы, Костюмы в Законе) / Suits
Год выпуска: 2017
Жанр: Драма, криминал, юриспруденция, комедия
Выпущено: США, Dutch Oven
Режиссер: Кевин Брэй, Джон Скотт
В ролях: Меган Маркл, Гэбриел Махт, Рик Хоффман, Джина Торрес, Патрик Дж. Адамс, Сара Рафферти, Кристен Буш, Джули Энн Эмери, Хлоя Кмарада, Лейн Ретмер, Джасинда Бэрретт
О фильме: Случайная встреча блестящего адвоката Харви Спектра и парня – недоучки с гениальной памятью и математическим талантом Майка Росса приводит к неожиданным последствиям: впечатлившись способностями молодого человека, юрист нанимает его в качестве помощника. Так был создан необыкновенно продуктивно выполняющий свою работу адвокатский тандем, скрепленный дружбой и преданностью его участников. Однако наступает момент, когда тщательно хранимый секрет восходящего светила юридических кругов Майка Росса становится опасным для обоих друзей…

Качество: WEB-DLRip
Видео: XviD, ~ 1536 Кбит/с, 720x400
Аудио:1 RUS: AC3, 6 ch, 384 Кбит/с
Аудио:2 ENG: AC3, 6 ch, 384 Кбит/с
Продолжительность: 16 x ~ 00:43:00
Перевод: Профессиональный (двухголосый, закадровый) (NewStudio)

Скриншоты


MediaInfo

General
Complete name : H:\Раздачи 3\Suits (Season 07) GeneralFilm\Suits.s07e01.WEBDLRip GeneralFilm.avi
Format : AVI
Format/Info : Audio Video Interleave
File size : 751 MiB
Duration : 45 min 16 s
Overall bit rate : 2 318 kb/s
Writing application : VirtualDubMod 1.5.10.3 | www.virtualdub-fr.org || (build 2550/release)
Writing library : VirtualDubMod build 2550/release
Video
ID : 0
Format : MPEG-4 Visual
Format profile : Advanced Simple@L5
Format settings : BVOP1 / Custom Matrix
Format settings, BVOP : 1
Format settings, QPel : No
Format settings, GMC : No warppoints
Format settings, Matrix : Custom
Codec ID : XVID
Codec ID/Hint : XviD
Duration : 45 min 16 s
Bit rate : 1 536 kb/s
Width : 720 pixels
Height : 400 pixels
Display aspect ratio : 16:9
Frame rate : 23.976 (24000/1001) FPS
Color space : YUV
Chroma subsampling : 4:2:0
Bit depth : 8 bits
Scan type : Progressive
Compression mode : Lossy
Bits/(Pixel*Frame) : 0.223
Stream size : 497 MiB (66%)
Writing library : XviD 73
Audio #1
ID : 1
Format : AC-3
Format/Info : Audio Coding 3
Commercial name : Dolby Digital
Codec ID : 2000
Duration : 45 min 16 s
Bit rate mode : Constant
Bit rate : 384 kb/s
Channel(s) : 6 channels
Channel layout : L R C LFE Ls Rs
Sampling rate : 48.0 kHz
Frame rate : 31.250 FPS (1536 SPF)
Bit depth : 16 bits
Compression mode : Lossy
Stream size : 124 MiB (17%)
Alignment : Split accross interleaves
Interleave, duration : 42 ms (1.00 video frame)
Interleave, preload duratio : 500 ms
Service kind : Complete Main
Audio #2
ID : 2
Format : AC-3
Format/Info : Audio Coding 3
Commercial name : Dolby Digital
Codec ID : 2000
Duration : 45 min 16 s
Bit rate mode : Constant
Bit rate : 384 kb/s
Channel(s) : 6 channels
Channel layout : L R C LFE Ls Rs
Sampling rate : 48.0 kHz
Frame rate : 31.250 FPS (1536 SPF)
Bit depth : 16 bits
Compression mode : Lossy
Stream size : 124 MiB (17%)
Alignment : Split accross interleaves
Interleave, duration : 42 ms (1.00 video frame)
Interleave, preload duratio : 500 ms
Service kind : Complete Main
Релиз от:
[Profile] [PM]
Display posts:    
Reply to topic

Current time is: 21-Aug 11:41

All times are UTC + 3



You cannot post new topics in this forum
You cannot reply to topics in this forum
You cannot edit your posts in this forum
You cannot delete your posts in this forum
You cannot vote in polls in this forum
You cannot attach files in this forum
You cannot download files in this forum