Форс-мажоры / Suits [8 сезон:1-13 серии из 16] (2018) WEB-DLRip от GeneralFilm | NewStudio

Ответить на тему
 
Автор Сообщение

Starik60 ®

Пол: Мужской

Стаж: 3 месяца 3 дня

Сообщений: 110

Откуда: Москва, Россия

Создавать темы 18-Ноя-2018 14:49

[Цитировать]

Форс-мажоры (Костюмы, Костюмы в Законе) / Suits
Год выпуска: 2018
Жанр: Драма, криминал, юриспруденция, комедия
Выпущено: США, Dutch Oven
Режиссер: Кевин Брэй, Джон Скотт
В ролях: Меган Маркл, Гэбриел Махт, Рик Хоффман, Джина Торрес, Патрик Дж. Адамс, Сара Рафферти, Кристен Буш, Джули Энн Эмери, Хлоя Кмарада, Лейн Ретмер, Джасинда Бэрретт
О фильме: Случайная встреча блестящего адвоката Харви Спектра и парня – недоучки с гениальной памятью и математическим талантом Майка Росса приводит к неожиданным последствиям: впечатлившись способностями молодого человека, юрист нанимает его в качестве помощника. Так был создан необыкновенно продуктивно выполняющий свою работу адвокатский тандем, скрепленный дружбой и преданностью его участников. Однако наступает момент, когда тщательно хранимый секрет восходящего светила юридических кругов Майка Росса становится опасным для обоих друзей…

Качество: WEB-DLRip
Видео: XviD, ~ 1888 Кбит/с, 720x400
Аудио:1 RUS: AC3, 6 ch, 384 Кбит/с
Аудио:2 ENG: AC3, 6 ch, 384 Кбит/с
Продолжительность: 13 x ~ 00:43:00
Перевод: Профессиональный (двухголосый, закадровый) (NewStudio)

Скриншоты



MediaInfo

General
Complete name : H:\Раздачи 3\Suits (Season 08) GeneralFilm\Suits.s08e01.WEBDLRip GeneralFilm.avi
Format : AVI
Format/Info : Audio Video Interleave
File size : 818 MiB
Duration : 42 min 49 s
Overall bit rate : 2 670 kb/s
Writing application : VirtualDubMod 1.5.10.3 | www.virtualdub-fr.org || (build 2550/release)
Writing library : VirtualDubMod build 2550/release
Video
ID : 0
Format : MPEG-4 Visual
Format profile : Advanced Simple@L5
Format settings : BVOP1 / Custom Matrix
Format settings, BVOP : 1
Format settings, QPel : No
Format settings, GMC : No warppoints
Format settings, Matrix : Custom
Codec ID : XVID
Codec ID/Hint : XviD
Duration : 42 min 49 s
Bit rate : 1 888 kb/s
Width : 720 pixels
Height : 400 pixels
Display aspect ratio : 16:9
Frame rate : 23.976 (24000/1001) FPS
Color space : YUV
Chroma subsampling : 4:2:0
Bit depth : 8 bits
Scan type : Progressive
Compression mode : Lossy
Bits/(Pixel*Frame) : 0.273
Stream size : 578 MiB (71%)
Writing library : XviD 1.2.1 (UTC 2008-12-04)
Audio #1
ID : 1
Format : AC-3
Format/Info : Audio Coding 3
Commercial name : Dolby Digital
Codec ID : 2000
Duration : 42 min 49 s
Bit rate mode : Constant
Bit rate : 384 kb/s
Channel(s) : 6 channels
Channel layout : L R C LFE Ls Rs
Sampling rate : 48.0 kHz
Frame rate : 31.250 FPS (1536 SPF)
Bit depth : 16 bits
Compression mode : Lossy
Stream size : 118 MiB (14%)
Alignment : Split accross interleaves
Interleave, duration : 42 ms (1.00 video frame)
Interleave, preload duratio : 500 ms
Service kind : Complete Main
Audio #2
ID : 2
Format : AC-3
Format/Info : Audio Coding 3
Commercial name : Dolby Digital
Codec ID : 2000
Duration : 42 min 49 s
Bit rate mode : Constant
Bit rate : 384 kb/s
Channel(s) : 6 channels
Channel layout : L R C LFE Ls Rs
Sampling rate : 48.0 kHz
Frame rate : 31.250 FPS (1536 SPF)
Bit depth : 16 bits
Compression mode : Lossy
Stream size : 118 MiB (14%)
Alignment : Split accross interleaves
Interleave, duration : 42 ms (1.00 video frame)
Interleave, preload duratio : 500 ms
Service kind : Complete Main

Релиз от:
[Профиль] [ЛС]
Показать сообщения:    
Ответить на тему

Текущее время: 16-Фев 11:22

Часовой пояс: UTC + 3



Вы не можете начинать темы
Вы не можете отвечать на сообщения
Вы не можете редактировать свои сообщения
Вы не можете удалять свои сообщения
Вы не можете голосовать в опросах
Вы не можете прикреплять файлы к сообщениям
Вы не можете скачивать файлы