Форс-мажоры / Suits [7 сезон: 1-16 серии из 16] (2017) WEB-DL 1080p | NewStudio

Reply to topic
 
Author Message

Мухич ®

Gender: Male

Longevity: 8 months 27 days

Posts: 53

Post 21-Nov-2018 13:01

[Quote]

Форс-мажоры (Костюмы, Костюмы в Законе) / Suits
Год выпуска: 2017
Жанр: Драма, криминал, юриспруденция, комедия
Выпущено: США, Dutch Oven
Режиссер: Кевин Брэй, Джон Скотт
В ролях: Меган Маркл, Гэбриел Махт, Рик Хоффман, Джина Торрес, Патрик Дж. Адамс, Сара Рафферти, Кристен Буш, Джули Энн Эмери, Хлоя Кмарада, Лейн Ретмер, Джасинда Бэрретт
О фильме: Случайная встреча блестящего адвоката Харви Спектра и парня – недоучки с гениальной памятью и математическим талантом Майка Росса приводит к неожиданным последствиям: впечатлившись способностями молодого человека, юрист нанимает его в качестве помощника. Так был создан необыкновенно продуктивно выполняющий свою работу адвокатский тандем, скрепленный дружбой и преданностью его участников. Однако наступает момент, когда тщательно хранимый секрет восходящего светила юридических кругов Майка Росса становится опасным для обоих друзей…

Качество: WEB-DL 1080p
Видео: MPEG-4 AVC, 5000 Кбит/с, 1920x1080
Аудио:1 RUS: AC3, 6 ch, 384 Кбит/с
Аудио:2 ENG: AC3, 6 ch, 384 Кбит/с
Продолжительность: 16 x ~ 00:43:00
Перевод: Профессиональный (двухголосый, закадровый) (NewStudio)
Субтитры: Русские, (не во всех сериях серии 11-16 без рус суб) английские

Скриншоты

MediaInfo

Общее
Уникальный идентификатор : 250318323829163229275023811280155175723 (0xBC518E3877EE6250BE8DA85C2FD7EB2B)
Полное имя : D:\Suits\Suits.s07e01.1080p.NewStudio.mkv
Формат : Matroska
Версия формата : Version 2
Размер файла : 1,89 Гбайт
Продолжительность : 45 м. 16 с.
Общий поток : 5984 Кбит/сек
Дата кодирования : UTC 2017-07-19 17:46:34
Программа кодирования : mkvmerge v12.0.0 ('Trust / Lust') 64bit
Библиотека кодирования : libebml v1.3.4 + libmatroska v1.4.5
Видео
Идентификатор : 1
Формат : AVC
Формат/Информация : Advanced Video Codec
Профиль формата : High@L4
Настройки формата : CABAC / 4 Ref Frames
Параметр CABAC формата : Да
Параметр RefFrames формата : 4 кадра
Идентификатор кодека : V_MPEG4/ISO/AVC
Продолжительность : 45 м. 16 с.
Битрейт : 5097 Кбит/сек
Ширина : 1920 пикселей
Высота : 1080 пикселей
Соотношение сторон : 16:9
Режим частоты кадров : Постоянный
Частота кадров : 23,976 (24000/1001) кадра/сек
Цветовое пространство : YUV
Субдискретизация насыщенности : 4:2:0
Битовая глубина : 8 бит
Тип развёртки : Прогрессивная
Бит/(Пиксели*Кадры) : 0.103
Размер потока : 1,61 Гбайт (85%)
Язык : English
Default : Да
Forced : Нет
Цветовой диапазон : Limited
Основные цвета : BT.709
Характеристики трансфера : BT.709
Коэффициенты матрицы : BT.709
Аудио #1
Идентификатор : 2
Формат : AC-3
Формат/Информация : Audio Coding 3
Идентификатор кодека : A_AC3
Продолжительность : 45 м. 16 с.
Вид битрейта : Постоянный
Битрейт : 384 Кбит/сек
Каналы : 6 каналов
Расположение каналов : Front: L C R, Side: L R, LFE
Частота : 48,0 КГц
Частота кадров : 31,250 кадров/сек (1536 SPF)
Битовая глубина : 16 бит
Метод сжатия : С потерями
Задержка видео : -20 мс.
Размер потока : 124 Мбайт (6%)
Язык : Russian
ServiceKind/String : Complete Main
Default : Да
Forced : Нет
Аудио #2
Идентификатор : 3
Формат : AC-3
Формат/Информация : Audio Coding 3
Идентификатор кодека : A_AC3
Продолжительность : 45 м. 16 с.
Вид битрейта : Постоянный
Битрейт : 384 Кбит/сек
Каналы : 6 каналов
Расположение каналов : Front: L C R, Side: L R, LFE
Частота : 48,0 КГц
Частота кадров : 31,250 кадров/сек (1536 SPF)
Битовая глубина : 16 бит
Метод сжатия : С потерями
Задержка видео : -42 мс.
Размер потока : 124 Мбайт (6%)
Язык : English
ServiceKind/String : Complete Main
Default : Нет
Forced : Нет
Текст #1
Идентификатор : 4
Формат : UTF-8
Идентификатор кодека : S_TEXT/UTF8
Идентификатор кодека/Информация : UTF-8 Plain Text
Язык : Russian
Default : Да
Forced : Нет
Текст #2
Идентификатор : 5
Формат : UTF-8
Идентификатор кодека : S_TEXT/UTF8
Идентификатор кодека/Информация : UTF-8 Plain Text
Язык : English
Default : Нет
Forced : Нет
Автор релиза: IDsign
[Profile] [PM]
Display posts:    
Reply to topic

Current time is: 17-Aug 21:20

All times are UTC + 3



You cannot post new topics in this forum
You cannot reply to topics in this forum
You cannot edit your posts in this forum
You cannot delete your posts in this forum
You cannot vote in polls in this forum
You cannot attach files in this forum
You cannot download files in this forum