Домашний арест [1 сезон: 1-12 серии из 12] (2018) WEBRip 1080p

Reply to topic
 
Author Message

Мухич ®

Gender: Male

Longevity: 7 months 5 days

Posts: 53

Post 30-Nov-2018 09:37

[Quote]

Домашний арест
Год выпуска: 2018
Жанр: Комедия
Выпущено: Россия, Comedy Club Production
Режиссер: Пётр Буслов
В ролях: Павел Деревянко, Александр Робак, Анна Уколова, Марина Александрова, Егор Клинаев, Юлия Сорокина, Сергей Бурунов, Роман Мадянов, Светлана Ходченкова, Тимофей Трибунцев, Олеся Судзиловская, Яна Кошкина, Альбина Тиханова, Владимир Симонов, Дмитрий Лысенков, Анатолий Кот, Гоша Куценко, Игорь Савочкин, Роман Погорелов, Артём Бобцов, Дмитрий Смирнов (II), Вадим Смирнов, Александр Баширов, Дмитрий Караневский, Ёла Санько, Вячеслав Гуливицкий, Илья Коврижных, Евгений Сытый, Семён Штейнберг, Борис Зверев, Дмитрий Астрахан, Александр Назаров (II), Светлана Первушина, Анастасия Сапожникова, Иван Лакшин, Наталья Громушкина, Лев Лещенко, Галина Аверьянова, Александр Клюквин, Олег Билик, Дмитрий Никулин, Ирина Пегова
О фильме: Мэр небольшого города попался на взятке и в качестве меры пресечения ему назначен домашний арест по месту прописки. Коллизия в том, что, чтобы казаться скромнее, чиновник прописан не в своем особняке, а в коммунальной квартире, в которой когда-то родился и вырос. Так он попадает в коммунальный ад своей старой квартиры. Он больше не главный и сам в свою очередь оказывается во власти простых обитателей коммуналки.

Качество: WEBRip 1080p
Видео: MPEG-4 AVC, ~ 4815 Кбит/с, 1920x1080
Аудио: AC3, 2 ch, 192 Кбит/с
Продолжительность: 12 х ~ 01:07:00
Перевод: Не требуется
Cубтитры: нет

Скриншоты

MediaInfo

D:\ Общее
Уникальный идентификатор : 188677058339871322423406193332938813381 (0x8DF1E1309536196F92AF11D5426F2FC5)
Полное имя : C:Домашний АрестДомашний_Арест_01_1080p.mkv
Формат : Matroska
Версия формата : Version 4
Размер файла : 2,36 Гбайт
Продолжительность : 1 ч. 7 м.
Общий поток : 5010 Кбит/сек
Дата кодирования : UTC 2018-09-05 14:41:09
Программа кодирования : mkvmerge v9.2.0 ('Photograph') 64bit
Библиотека кодирования : libebml v1.3.3 + libmatroska v1.4.4
Видео
Идентификатор : 1
Формат : AVC
Формат/Информация : Advanced Video Codec
Профиль формата : High@L4
Настройки формата : CABAC / 4 Ref Frames
Параметр CABAC формата : Да
Параметр RefFrames формата : 4 кадра
Идентификатор кодека : V_MPEG4/ISO/AVC
Продолжительность : 1 ч. 7 м.
Битрейт : 4815 Кбит/сек
Ширина : 1920 пикселей
Высота : 1080 пикселей
Соотношение сторон : 16:9
Режим частоты кадров : Постоянный
Частота кадров : 25,000 кадров/сек
Цветовое пространство : YUV
Субдискретизация насыщенности : 4:2:0
Битовая глубина : 8 бит
Тип развёртки : Прогрессивная
Бит/(Пиксели*Кадры) : 0.093
Размер потока : 2,27 Гбайт (96%)
Язык : Russian
Default : Да
Forced : Нет
Аудио
Идентификатор : 2
Формат : AAC LC
Формат/Информация : Advanced Audio Codec Low Complexity
Идентификатор кодека : A_AAC-2
Продолжительность : 1 ч. 7 м.
Битрейт : 192 Кбит/сек
Каналы : 2 канала
Channel layout : L R
Частота : 48,0 КГц
Частота кадров : 46,875 кадров/сек (1024 SPF)
Метод сжатия : С потерями
Задержка видео : 160 мс.
Размер потока : 92,8 Мбайт (4%)
Язык : Russian
Default : Да
Forced : Нет
Автор релиза: 25Kuzmich
[Profile] [PM]
Display posts:    
Reply to topic

Current time is: 25-Jun 23:56

All times are UTC + 3



You cannot post new topics in this forum
You cannot reply to topics in this forum
You cannot edit your posts in this forum
You cannot delete your posts in this forum
You cannot vote in polls in this forum
You cannot attach files in this forum
You cannot download files in this forum