Домашний арест [1 сезон: 1-12 серии из 12] (2018) WEBRip 720p

Reply to topic
 
Author Message

Nicodem ®

Gender: Male

Longevity: 1 year

Posts: 312

Post 23-Nov-2018 13:37

[Quote]

Домашний арест
Год выпуска: 2018
Жанр: Комедия
Выпущено: Россия, Comedy Club Production
Режиссер: Пётр Буслов
В ролях: Павел Деревянко, Александр Робак, Анна Уколова, Марина Александрова, Егор Клинаев, Юлия Сорокина, Сергей Бурунов, Роман Мадянов, Светлана Ходченкова, Тимофей Трибунцев, Олеся Судзиловская, Яна Кошкина, Альбина Тиханова, Владимир Симонов, Дмитрий Лысенков, Анатолий Кот, Гоша Куценко, Игорь Савочкин, Роман Погорелов, Артём Бобцов, Дмитрий Смирнов (II), Вадим Смирнов, Александр Баширов, Дмитрий Караневский, Ёла Санько, Вячеслав Гуливицкий, Илья Коврижных, Евгений Сытый, Семён Штейнберг, Борис Зверев, Дмитрий Астрахан, Александр Назаров (II), Светлана Первушина, Анастасия Сапожникова, Иван Лакшин, Наталья Громушкина, Лев Лещенко, Галина Аверьянова, Александр Клюквин, Олег Билик, Дмитрий Никулин, Ирина Пегова
О фильме: Мэр небольшого города попался на взятке и в качестве меры пресечения ему назначен домашний арест по месту прописки. Коллизия в том, что, чтобы казаться скромнее, чиновник прописан не в своем особняке, а в коммунальной квартире, в которой когда-то родился и вырос. Так он попадает в коммунальный ад своей старой квартиры. Он больше не главный и сам в свою очередь оказывается во власти простых обитателей коммуналки.

Качество: WEBRip 720p
Видео: MPEG-4 AVC, ~ 2000 Кбит/с, 1024x576 25 кадр/с
Аудио: AC3, 2 ch, 192 Кбит/с
Продолжительность: 12 х ~ 01:07:00
Перевод: Не требуется
Cубтитры: нет

Скриншоты


MediaInfo

General
Unique ID : 248494404026864055418874072859856404828 (0xBAF248080C3CF4CEBF67DE24A535015C)
Complete name : C:\Users\DOM\Downloads\Domashnij arest_ [tahiy]\Domashnij arest.(S01E01).720p_ [tahiy].mkv
Format : Matroska
File size : 1.04 GiB
Duration : 1h 7mn
Overall bit rate : 2 194 Kbps
Encoded date : UTC 2018-09-14 11:32:22
Writing application : mkvmerge v6.1.0 ('Old Devil') built on Mar 4 2013 09:10:42
Writing library : libebml v1.3.0 + libmatroska v1.4.0
Video
ID : 1
Format : AVC
Format/Info : Advanced Video Codec
Format profile : High@L4.1
Format settings, CABAC : Yes
Format settings, ReFrames : 8 frames
Codec ID : V_MPEG4/ISO/AVC
Duration : 1h 7mn
Bit rate : 2 000 Kbps
Width : 1 280 pixels
Height : 720 pixels
Display aspect ratio : 16:9
Frame rate : 25.000 fps
Color space : YUV
Chroma subsampling : 4:2:0
Bit depth : 8 bits
Scan type : Progressive
Bits/(Pixel*Frame) : 0.087
Stream size : 946 MiB (89%)
Writing library : x264 core 130 r2273 b3065e6
Encoding settings : cabac=1 / ref=8 / deblock=1:-2:-2 / analyse=0x3:0x113 / me=umh / subme=10 / psy=1 / psy_rd=1.00:0.20 / mixed_ref=1 / me_range=32 / chroma_me=1 / trellis=2 / 8x8dct=1 / cqm=0 / deadzone=21,11 / fast_pskip=0 / chroma_qp_offset=-3 / threads=6 / lookahead_threads=1 / sliced_threads=0 / nr=0 / decimate=0 / interlaced=0 / bluray_compat=0 / constrained_intra=0 / bframes=10 / b_pyramid=2 / b_adapt=2 / b_bias=0 / direct=3 / weightb=1 / open_gop=0 / weightp=2 / keyint=250 / keyint_min=25 / scenecut=40 / intra_refresh=0 / rc_lookahead=40 / rc=2pass / mbtree=0 / bitrate=2000 / ratetol=1.0 / qcomp=0.60 / qpmin=0 / qpmax=69 / qpstep=4 / cplxblur=20.0 / qblur=0.5 / vbv_maxrate=50000 / vbv_bufsize=62500 / nal_hrd=none / ip_ratio=1.40 / pb_ratio=1.30 / aq=1:1.00
Audio
ID : 2
Format : AC-3
Format/Info : Audio Coding 3
Mode extension : CM (complete main)
Codec ID : A_AC3
Duration : 1h 7mn
Bit rate mode : Constant
Bit rate : 192 Kbps
Channel(s) : 2 channels
Channel positions : Front: L R
Sampling rate : 48.0 KHz
Bit depth : 16 bits
Compression mode : Lossy
Stream size : 92.8 MiB (9%)
[Profile] [PM]
Display posts:    
Reply to topic

Current time is: 10-Dec 20:25

All times are UTC + 3



You cannot post new topics in this forum
You cannot reply to topics in this forum
You cannot edit your posts in this forum
You cannot delete your posts in this forum
You cannot vote in polls in this forum
You cannot attach files in this forum
You cannot download files in this forum