Домашний арест [1 сезон: 1-12 серии из 12] (2018) WEBRip

Reply to topic
 
Author Message

Nicodem ®

Gender: Male

Longevity: 11 months 1 day

Posts: 255

Post 23-Nov-2018 13:10

[Quote]

Домашний арест
Год выпуска: 2018
Жанр: Комедия
Выпущено: Россия, Comedy Club Production
Режиссер: Пётр Буслов
В ролях: Павел Деревянко, Александр Робак, Анна Уколова, Марина Александрова, Егор Клинаев, Юлия Сорокина, Сергей Бурунов, Роман Мадянов, Светлана Ходченкова, Тимофей Трибунцев, Олеся Судзиловская, Яна Кошкина, Альбина Тиханова, Владимир Симонов, Дмитрий Лысенков, Анатолий Кот, Гоша Куценко, Игорь Савочкин, Роман Погорелов, Артём Бобцов, Дмитрий Смирнов (II), Вадим Смирнов, Александр Баширов, Дмитрий Караневский, Ёла Санько, Вячеслав Гуливицкий, Илья Коврижных, Евгений Сытый, Семён Штейнберг, Борис Зверев, Дмитрий Астрахан, Александр Назаров (II), Светлана Первушина, Анастасия Сапожникова, Иван Лакшин, Наталья Громушкина, Лев Лещенко, Галина Аверьянова, Александр Клюквин, Олег Билик, Дмитрий Никулин, Ирина Пегова
О фильме: Мэр небольшого города попался на взятке и в качестве меры пресечения ему назначен домашний арест по месту прописки. Коллизия в том, что, чтобы казаться скромнее, чиновник прописан не в своем особняке, а в коммунальной квартире, в которой когда-то родился и вырос. Так он попадает в коммунальный ад своей старой квартиры. Он больше не главный и сам в свою очередь оказывается во власти простых обитателей коммуналки.

Качество: WEBRip
Видео: XviD, ~ 1800 Кбит/с, 720x400, 25 кадр/с
Аудио: AC3, 2 ch, 192 Кбит/с
Продолжительность: 12 х ~ 01:07:00
Перевод: Не требуется
Cубтитры: нет

Скриншоты


MediaInfo

General
Complete name : C:\Users\DOM\Downloads\Домашний арест (Season 01)\01. Домашний арест.WEB-DLRip. Files-x...avi
Format : AVI
Format/Info : Audio Video Interleave
File size : 967 MiB
Duration : 1h 7mn
Overall bit rate : 2 002 Kbps
Writing application : VirtualDubMod 1.5.10.3 | www.virtualdub-fr.org || (build 2550/release)
Writing library : VirtualDubMod build 2550/release
Video
ID : 0
Format : MPEG-4 Visual
Format profile : Advanced Simple@L5
Format settings, BVOP : 1
Format settings, QPel : Yes
Format settings, GMC : No warppoints
Format settings, Matrix : Default (MPEG)
Codec ID : XVID
Codec ID/Hint : XviD
Duration : 1h 7mn
Bit rate : 1 800 Kbps
Width : 720 pixels
Height : 400 pixels
Display aspect ratio : 16:9
Frame rate : 25.000 fps
Color space : YUV
Chroma subsampling : 4:2:0
Bit depth : 8 bits
Scan type : Progressive
Compression mode : Lossy
Bits/(Pixel*Frame) : 0.250
Stream size : 870 MiB (90%)
Writing library : XviD 73
Audio
ID : 1
Format : AC-3
Format/Info : Audio Coding 3
Mode extension : CM (complete main)
Codec ID : 2000
Duration : 1h 7mn
Bit rate mode : Constant
Bit rate : 192 Kbps
Channel(s) : 2 channels
Channel positions : Front: L R
Sampling rate : 48.0 KHz
Bit depth : 16 bits
Compression mode : Lossy
Stream size : 92.8 MiB (10%)
Alignment : Split accross interleaves
Interleave, duration : 40 ms (1.00 video frame)
Interleave, preload duration : 500 ms
[Profile] [PM]

Post 23-Nov-2018 13:23 (after 13 minutes)

Топик был перенесен из форума Отечественные сериалы от RG Files-x в форум Русскоязычные
Серый1779
 
Display posts:    
Reply to topic

Current time is: 18-Oct 22:56

All times are UTC + 3



You cannot post new topics in this forum
You cannot reply to topics in this forum
You cannot edit your posts in this forum
You cannot delete your posts in this forum
You cannot vote in polls in this forum
You cannot attach files in this forum
You cannot download files in this forum