Миссия невыполнима: Последствия / Mission: Impossible - Fallout (2018) HDRip | iTunes

Reply to topic
 
Author Message

sergey82 ®

Gender: Male

Longevity: 11 months

Posts: 160

Location: Украина

Post 18-Nov-2018 22:01

[Quote]

Миссия невыполнима: Последствия / Mission: Impossible - Fallout
Год выпуска: 2018
Жанр: Боевик, триллер, приключения
Выпущено: США, Китай, Франция, Норвегия
Режиссер: Кристофер МакКуорри
В ролях: Том Круз, Ребекка Фергюсон, Генри Кавилл, Мишель Монахэн, Ванесса Кирби, Уэс Бентли, Саймон Пегг, Анджела Бассетт, Алек Болдуин, Винг Реймз, Шон Харрис
О фильме: В центре внимания снова окажется неутомимый суперагент Итан Хант в исполнении Тома Круза. Когда очередная миссия специального секретного отряда оперативников IMF идёт не по плану и заканчивается крахом, весь мир сталкивается с тяжёлыми последствиями этого провала. Поскольку Итан Хант берёт на себя выполнение своего первоначального задания, ЦРУ ставит под сомнение его лояльность и мотивы. Теперь Хант, на которого ведут охоту как профессиональные наёмные убийцы, так и бывшие союзники агента, вынужден действовать наперегонки со временем, пытаясь предотвратить глобальную катастрофу.
Качество: HDRip
Видео: XviD, 711 Кбит/с, 640x336
Аудио: Русский (МР3, 6 ch, 128 Кбит/с)
Продолжительность: 02:27:41
Перевод: Профессиональный (дублированный) [iTunes]
Cубтитры: Русские

Скриншоты

MediaInfo

Общее
Полное имя : D:\Mission.Impossible.Fallout.2018_HDRip___[scarabey.org].avi
Формат : AVI
Формат/Информация : Audio Video Interleave
Размер файла : 895 Мбайт
Продолжительность : 2 ч. 27 м.
Общий поток : 849 Кбит/сек
Программа кодирования : VirtualDubMod 1.5.10.3 | www.virtualdub-fr.org || (build 2550/release)
Библиотека кодирования : VirtualDubMod build 2550/release
Видео
Идентификатор : 0
Формат : MPEG-4 Visual
Профиль формата : Advanced Simple@L5
Настройки формата : BVOP1 / Custom Matrix
Параметр BVOP формата : 1
Параметр QPel формата : Нет
Параметр GMC формата : Без точки перехода
Параметр матрицы формата : Выборочная
Идентификатор кодека : XVID
Идентификатор кодека/Подсказка : XviD
Продолжительность : 2 ч. 27 м.
Битрейт : 679 Кбит/сек
Ширина : 640 пикселей
Высота : 336 пикселей
Соотношение сторон : 1,905
Частота кадров : 23,976 (24000/1001) кадра/сек
Частота кадров в оригинале : 23,976 (23976/1000) кадра/сек
Цветовое пространство : YUV
Субдискретизация насыщенности : 4:2:0
Битовая глубина : 8 бит
Тип развёртки : Прогрессивная
Метод сжатия : С потерями
Бит/(Пиксели*Кадры) : 0.132
Размер потока : 716 Мбайт (80%)
Библиотека кодирования : XviD 73
Аудио
Идентификатор : 1
Формат : MPEG Audio
Версия формата : Version 1
Профиль формата : Layer 3
Идентификатор кодека : 55
Идентификатор кодека/Подсказка : MP3
Продолжительность : 2 ч. 27 м.
Вид битрейта : Постоянный
Битрейт : 128 Кбит/сек
Каналы : 2 канала
Частота : 48,0 КГц
Частота кадров : 41,667 кадра/сек (1152 SPF)
Метод сжатия : С потерями
Размер потока : 135 Мбайт (15%)
Выравнивание : Соединение по промежуткам
Библиотека кодирования : LAME3.99r
Настройки программы : -m s -V 4 -q 2 -lowpass 17 -b 128
[Profile] [PM]
Display posts:    
Reply to topic

Current time is: 18-Oct 22:50

All times are UTC + 3



You cannot post new topics in this forum
You cannot reply to topics in this forum
You cannot edit your posts in this forum
You cannot delete your posts in this forum
You cannot vote in polls in this forum
You cannot attach files in this forum
You cannot download files in this forum