Миссия невыполнима: Последствия / Mission: Impossible - Fallout (IMAX Edition) (2018) BDRip AVC | Лицензия

Reply to topic
 
Author Message

Monk ®

Gender: Male

Longevity: 10 months 8 days

Posts: 8734

Location: Казань

Post 27-Nov-2018 12:16

[Quote]

Миссия невыполнима: Последствия / Mission: Impossible - Fallout Год выпуска: 2018
Жанр: Боевик, триллер, приключения
Выпущено: США, Китай, Франция, Норвегия, Paramount Pictures, Skydance Media
Режиссер: Кристофер МакКуорри
В ролях: Том Круз, Ребекка Фергюсон (II), Генри Кавилл, Мишель Монахэн, Ванесса Кирби, Уэс Бентли, Саймон Пегг, Анджела Бассетт, Алек Болдуин, Винг Рэймс
О фильме: Действие разворачивается вокруг преобразовавшейся террористической организации, которую когда-то ликвидировал Итан Хант. Агенту предстоит вновь столкнуться со старыми врагами и остановить их. Однако порой лучшие намерения приводят к ужасному исходу и в этот раз ряд принятых главным героем решений, сложность ситуации и предательство со стороны союзников, усугубляет положение дел, последствия которых будут губительными для многих людей. Победить в гонке против времени и предотвратить возможную катастрофу Итану Ханту помогают команда и друзья.

Качество: BDRip AVC
Видео: MPEG-4 AVC, 1855 Кбит/с, 1024x540
Аудио: Русский (AC3, 6 ch, 448 Кбит/с), украинский (AC3, 2 ch, 160 Кбит/c), английский (AC3, 6 ch, 448 Кбит/с)
Продолжительность: 02:27:25
Перевод: Дублированный [Лицензия]
Субтитры: Русские, английские, украинские

Скриншоты



MediaInfo

Общее
Уникальный идентификатор : 137346460053401846818403475861033420336 (0x6753F74CE7F2E2C3061FB5EF379F8630)
Полное имя : F:\OlLanDGroup\Mission.Impossible.Fallout.2018.BDRip(AVC).OlLanDGroup.mkv
Формат : Matroska
Версия формата : Version 4 / Version 2
Размер файла : 3,00 Гбайт
Продолжительность : 2 ч. 27 м.
Общий поток : 2912 Кбит/сек
Название фильма : Mission Impossible Fallout 2018 #TorpedoUK#
Дата кодирования : UTC 2018-12-05 12:59:55
Программа кодирования : mkvmerge v25.0.0 ('Prog Noir') 64-bit
Библиотека кодирования : libebml v1.3.6 + libmatroska v1.4.9
Видео
Идентификатор : 1
Формат : AVC
Формат/Информация : Advanced Video Codec
Профиль формата : High@L4.1
Параметр CABAC формата : Да
Параметр ReFrames формата : 10 кадров
Идентификатор кодека : V_MPEG4/ISO/AVC
Продолжительность : 2 ч. 27 м.
Битрейт : 1855 Кбит/сек
Ширина : 1024 пикселя
Высота : 540 пикселей
Соотношение сторон : 1,896
Режим частоты кадров : Постоянный
Частота кадров : 23,976 (24000/1001) кадра/сек
Цветовое пространство : YUV
Субдискретизация насыщенности : 4:2:0
Битовая глубина : 8 бит
Тип развёртки : Прогрессивная
Бит/(Пиксели*Кадры) : 0.140
Размер потока : 1,91 Гбайт (64%)
Библиотека кодирования : x264 core 146 r2538 121396c
Настройки программы : cabac=1 / ref=10 / deblock=1:-2:-3 / analyse=0x3:0x113 / me=umh / subme=11 / psy=1 / psy_rd=0.95:0.07 / mixed_ref=1 / me_range=48 / chroma_me=1 / trellis=2 / 8x8dct=1 / cqm=0 / deadzone=21,11 / fast_pskip=1 / chroma_qp_offset=-3 / threads=6 / lookahead_threads=1 / sliced_threads=0 / nr=0 / decimate=1 / interlaced=0 / bluray_compat=0 / constrained_intra=0 / bframes=11 / b_pyramid=2 / b_adapt=2 / b_bias=0 / direct=3 / weightb=1 / open_gop=0 / weightp=2 / keyint=240 / keyint_min=23 / scenecut=40 / intra_refresh=0 / rc_lookahead=40 / rc=2pass / mbtree=0 / bitrate=1855 / ratetol=1.0 / qcomp=0.60 / qpmin=0 / qpmax=69 / qpstep=4 / cplxblur=20.0 / qblur=0.5 / vbv_maxrate=50000 / vbv_bufsize=62500 / nal_hrd=none / filler=0 / ip_ratio=1.40 / pb_ratio=1.30 / aq=1:1.00
Язык : English
Default : Да
Forced : Нет
Аудио #1
Идентификатор : 2
Формат : AC-3
Формат/Информация : Audio Coding 3
Расширение режима : CM (complete main)
Параметр Endianness формата : Big
Идентификатор кодека : A_AC3
Продолжительность : 2 ч. 27 м.
Вид битрейта : Постоянный
Битрейт : 448 Кбит/сек
Каналы : 6 каналов
Расположение каналов : Front: L C R, Side: L R, LFE
Частота : 48,0 КГц
Частота кадров : 31,250 кадров/сек (1536 spf)
Битовая глубина : 16 бит
Метод сжатия : С потерями
Размер потока : 472 Мбайт (15%)
Заголовок : DUB [License]
Язык : Russian
Default : Да
Forced : Нет
Аудио #2
Идентификатор : 3
Формат : AC-3
Формат/Информация : Audio Coding 3
Расширение режима : CM (complete main)
Параметр Endianness формата : Big
Идентификатор кодека : A_AC3
Продолжительность : 2 ч. 27 м.
Вид битрейта : Постоянный
Битрейт : 160 Кбит/сек
Каналы : 2 канала
Расположение каналов : Front: L R
Частота : 48,0 КГц
Частота кадров : 31,250 кадров/сек (1536 spf)
Битовая глубина : 16 бит
Метод сжатия : С потерями
Размер потока : 169 Мбайт (5%)
Заголовок : [iTunes]
Язык : Ukrainian
Default : Нет
Forced : Нет
Аудио #3
Идентификатор : 4
Формат : AC-3
Формат/Информация : Audio Coding 3
Расширение режима : CM (complete main)
Параметр Endianness формата : Big
Идентификатор кодека : A_AC3
Продолжительность : 2 ч. 27 м.
Вид битрейта : Постоянный
Битрейт : 448 Кбит/сек
Каналы : 6 каналов
Расположение каналов : Front: L C R, Side: L R, LFE
Частота : 48,0 КГц
Частота кадров : 31,250 кадров/сек (1536 spf)
Битовая глубина : 16 бит
Метод сжатия : С потерями
Размер потока : 472 Мбайт (15%)
Заголовок : [Original]
Язык : English
Default : Нет
Forced : Нет
Текст #1
Идентификатор : 5
Формат : UTF-8
Идентификатор кодека : S_TEXT/UTF8
Идентификатор кодека/Информация : UTF-8 Plain Text
Продолжительность : 2 ч. 25 м.
Битрейт : 1 бит/сек
Count of elements : 36
Размер потока : 1,29 Кбайт (0%)
Заголовок : Forced
Язык : Russian
Default : Да
Forced : Нет
Текст #2
Идентификатор : 6
Формат : UTF-8
Идентификатор кодека : S_TEXT/UTF8
Идентификатор кодека/Информация : UTF-8 Plain Text
Продолжительность : 2 ч. 26 м.
Битрейт : 68 бит/сек
Count of elements : 1575
Размер потока : 73,1 Кбайт (0%)
Заголовок : Full
Язык : Russian
Default : Нет
Forced : Нет
Текст #3
Идентификатор : 7
Формат : UTF-8
Идентификатор кодека : S_TEXT/UTF8
Идентификатор кодека/Информация : UTF-8 Plain Text
Продолжительность : 2 ч. 25 м.
Битрейт : 1 бит/сек
Count of elements : 37
Размер потока : 1,31 Кбайт (0%)
Заголовок : Forced
Язык : Ukrainian
Default : Нет
Forced : Нет
Текст #4
Идентификатор : 8
Формат : UTF-8
Идентификатор кодека : S_TEXT/UTF8
Идентификатор кодека/Информация : UTF-8 Plain Text
Продолжительность : 2 ч. 26 м.
Битрейт : 75 бит/сек
Count of elements : 1576
Размер потока : 80,7 Кбайт (0%)
Заголовок : Full
Язык : Ukrainian
Default : Нет
Forced : Нет
Текст #5
Идентификатор : 9
Формат : UTF-8
Идентификатор кодека : S_TEXT/UTF8
Идентификатор кодека/Информация : UTF-8 Plain Text
Продолжительность : 2 ч. 19 м.
Битрейт : 53 бит/сек
Count of elements : 1854
Размер потока : 55,0 Кбайт (0%)
Заголовок : SDH
Язык : English
Default : Нет
Forced : Нет
Меню
00:00:00.000 : en:00:00:00.000
00:10:37.011 : en:00:10:37.011
00:17:11.405 : en:00:17:11.405
00:26:57.241 : en:00:26:57.241
00:35:56.654 : en:00:35:56.654
00:49:18.414 : en:00:49:18.414
01:00:00.806 : en:01:00:00.806
01:10:23.719 : en:01:10:23.719
01:17:07.289 : en:01:17:07.289
01:28:28.470 : en:01:28:28.470
01:39:09.652 : en:01:39:09.652
01:46:26.547 : en:01:46:26.547
01:55:45.564 : en:01:55:45.564
02:03:10.592 : en:02:03:10.592
02:14:00.908 : en:02:14:00.908
02:19:48.088 : en:02:19:48.088
[Profile] [PM]
Display posts:    
Reply to topic

Current time is: 23-Sep 04:34

All times are UTC + 3



You cannot post new topics in this forum
You cannot reply to topics in this forum
You cannot edit your posts in this forum
You cannot delete your posts in this forum
You cannot vote in polls in this forum
You cannot attach files in this forum
You cannot download files in this forum