Миссия невыполнима: Последствия / Mission: Impossible - Fallout (2018) HDRip от Generalfilm | КПК | IMAX Edition | iTunes

Reply to topic
 
Author Message

mjjhec ®

Gender: Male

Longevity: 9 months 4 days

Posts: 302

Location: СССР

Post 17-Nov-2018 21:52

[Quote]

Миссия невыполнима: Последствия
Год выпуска: 2018 г.
Жанр: Боевик, триллер, приключения
Выпущено: США, Китай, Франция, Норвегия, Bad Robot, Paramount Pictures, Skydance Media
Режиссер: Кристофер МакКуорри
В ролях: Том Круз, Ребекка Фергюсон (II), Генри Кавилл, Мишель Монахэн, Ванесса Кирби, Уэс Бентли, Саймон Пегг, Анджела Бассетт, Алек Болдуин, Винг Рэймс.
О фильме: Итан Хант и его команда, а также недавно примкнувшие к ним союзники, вынуждены действовать наперегонки со временем, когда новая миссия идет не по плану.
Качество: HDRip | КПК
Видео: Н.264, 640x336 (1.905), 23.976 fps, 400 Kbps
Аудио: AAC LC, 48.0 KHz, 2 ch, 128 Kbps
Продолжительность: 02:27:24
Перевод: Дублированный [iTunes]
Cубтитры: нет

Скриншоты

MediaInfo

General
Complete name : F:\Rip\Mission.Impossible.Fallout.2018.HDRip.by.mjjhec.mp4
Format : MPEG-4
Format profile : Base Media
Codec ID : isom (isom/avc1/iso6)
File size : 561 MiB
Duration : 2 h 27 min
Overall bit rate mode : Variable
Overall bit rate : 532 kb/s
Encoded date : UTC 2018-11-16 20:08:45
Tagged date : UTC 2018-11-16 20:08:45
Video
ID : 1
Format : AVC
Format/Info : Advanced Video Codec
Format profile : High@L4.1
Format settings : CABAC / 10 Ref Frames
Format settings, CABAC : Yes
Format settings, ReFrames : 10 frames
Codec ID : avc1
Codec ID/Info : Advanced Video Coding
Duration : 2 h 27 min
Bit rate : 400 kb/s
Maximum bit rate : 1 709 kb/s
Width : 640 pixels
Height : 336 pixels
Display aspect ratio : 1.905
Frame rate mode : Constant
Frame rate : 23.976 (24000/1001) FPS
Color space : YUV
Chroma subsampling : 4:2:0
Bit depth : 8 bits
Scan type : Progressive
Bits/(Pixel*Frame) : 0.078
Stream size : 422 MiB (75%)
Title : 264@GPAC0.5.2-DEV-rev248-g39d5978-master
Writing library : x264 core 146 r2538 121396c
Encoding settings : cabac=1 / ref=10 / deblock=1:-3:-3 / analyse=0x3:0x133 / me=umh / subme=11 / psy=1 / psy_rd=1.00:1.00 / mixed_ref=1 / me_range=48 / chroma_me=1 / trellis=2 / 8x8dct=1 / cqm=0 / deadzone=21,11 / fast_pskip=1 / chroma_qp_offset=-4 / threads=6 / lookahead_threads=1 / sliced_threads=0 / nr=0 / decimate=0 / interlaced=0 / bluray_compat=0 / constrained_intra=0 / bframes=10 / b_pyramid=2 / b_adapt=2 / b_bias=0 / direct=3 / weightb=1 / open_gop=0 / weightp=2 / keyint=240 / keyint_min=23 / scenecut=40 / intra_refresh=0 / rc_lookahead=60 / rc=2pass / mbtree=0 / bitrate=400 / ratetol=1.0 / qcomp=0.60 / qpmin=0 / qpmax=69 / qpstep=4 / cplxblur=20.0 / qblur=0.5 / vbv_maxrate=14000 / vbv_bufsize=14000 / nal_hrd=none / filler=0 / ip_ratio=1.40 / pb_ratio=1.30 / aq=1:1.00
Encoded date : UTC 2018-11-16 20:08:45
Tagged date : UTC 2018-11-16 20:09:15
Codec configuration box : avcC
Audio
ID : 2
Format : AAC LC
Format/Info : Advanced Audio Codec Low Complexity
Codec ID : mp4a-40-2
Duration : 2 h 27 min
Bit rate mode : Variable
Bit rate : 128 kb/s
Maximum bit rate : 138 kb/s
Channel(s) : 2 channels
Channel layout : L R
Sampling rate : 48.0 kHz
Frame rate : 46.875 FPS (1024 SPF)
Compression mode : Lossy
Stream size : 135 MiB (24%)
Encoded date : UTC 2018-11-16 17:40:41
Tagged date : UTC 2018-11-16 20:09:15
Релиз от:
[Profile] [PM]
Display posts:    
Reply to topic

Current time is: 20-Aug 20:22

All times are UTC + 3



You cannot post new topics in this forum
You cannot reply to topics in this forum
You cannot edit your posts in this forum
You cannot delete your posts in this forum
You cannot vote in polls in this forum
You cannot attach files in this forum
You cannot download files in this forum