Соня Суперфрау [1-4 серии из 4] (2019) WEBRip 1080p от Files-x

Reply to topic
 
Author Message

papa1951deda ®

Gender: Male

Longevity: 10 months 29 days

Posts: 331

Location: Казахстан

Post 08-Oct-2019 08:14

[Quote]

Соня Суперфрау Год выпуска: 2019
Жанр: Документальный, драма
Выпущено: Россия, ООО «Студия документальных фильмов Андрея Никишина»
Режиссер: Андрей Никишин
В ролях: Ирина Воронова, Олег Царев, Антон Киселёв, Александр Макаршин, Яна Сухова, Михаил Кульченко, Артём Шкрабак и др.
О фильме: За ней охотилась тайная полиция Гоминьдана, ее отслеживала немецкая разведка Абвер и полиция Третьего рейха Гестапо, ее разыскивали секретные службы Японии, Италии и Швейцарии, по ее следу шли контрразведки Польши и Румынии, ее пыталось найти ЦРУ и хотели арестовать британские спецслужбы. Но никому так и не удалось этого сделать. Во всем мире эта женщина известна под своим литературным псевдонимом — Рут Вернер. Однако ее настоящее имя — Урсула Кучински. А в советской военной разведке она известна как Соня — легендарная разведчица, работавшая во многих странах мира и выполнявшая ответственные задания. Она участвовала в работе группы Рихарда Зорге в Китае, «Красной капеллы» в Швейцарии и помогала добывать информацию о разработке атомной бомбы. Четырехсерийная докудрама, снятая по мотивам мемуаров советской разведчицы Рут Вернер «Соня рапортует», а также по историческому исследованию Александра Колпакиди «Суперфрау из ГРУ», рассказывает не только о сложной, трудной и многогранной жизни разведчицы Сони, но и знакомит зрителей с большим кругом разнообразных людей, которые окружали женщину на протяжении всей ее жизни.
Качество: WEBRip 1080p
Видео: MPEG-4 AVC, ~ 6000 Кбит/с, 1920x1080, 25 кадр/с
Аудио: AC3, 2 ch, 192 Кбит/с
Продолжительность: 4 x ~ 00:51:00
Перевод: Не требуется [Русский]
Cубтитры: нет

Скриншоты

MediaInfo

General
Unique ID : 170985099310677336855619671161349159178 (0x80A288438B5E597BBA95EF380FC1390A)
Complete name : C:\00\6354\Соня Суперфрау. WEB-DL 1080p. Files-x\02. Соня Суперфрау. WEB-DL 1080p. Files-x.mkv
Format : Matroska
File size : 2.19 GiB
Duration : 51mn 5s
Overall bit rate : 6 139 Kbps
Encoded date : UTC 2019-10-09 02:28:23
Writing application : mkvmerge v7.8.0 ('River Man') 32bit built on Apr 3 2015 12:11:22
Writing library : libebml v1.3.1 + libmatroska v1.4.2
Video
ID : 1
Format : AVC
Format/Info : Advanced Video Codec
Format profile : High@L4.1
Format settings, CABAC : No
Format settings, ReFrames : 2 frames
Codec ID : V_MPEG4/ISO/AVC
Duration : 51mn 6s
Bit rate mode : Constant
Bit rate : 6 000 Kbps
Width : 1 920 pixels
Height : 1 080 pixels
Display aspect ratio : 16:9
Frame rate : 25.000 fps
Standard : PAL
Color space : YUV
Chroma subsampling : 4:2:0
Bit depth : 8 bits
Scan type : Progressive
Bits/(Pixel*Frame) : 0.116
Stream size : 2.08 GiB (95%)
Language : English
Color primaries : BT.709-5, BT.1361, IEC 61966-2-4, SMPTE RP177
Transfer characteristics : BT.709-5, BT.1361
Matrix coefficients : BT.709-5, BT.1361, IEC 61966-2-4 709, SMPTE RP177
Audio
ID : 2
Format : AC-3
Format/Info : Audio Coding 3
Mode extension : CM (complete main)
Codec ID : A_AC3
Duration : 51mn 5s
Bit rate mode : Constant
Bit rate : 192 Kbps
Channel(s) : 2 channels
Channel positions : Front: L R
Sampling rate : 48.0 KHz
Bit depth : 16 bits
Compression mode : Lossy
Stream size : 70.2 MiB (3%)

Внимание! Раздача ведётся путём добавления новых серий

Раздача ведётся путём добавления новых серий, при каждом добавлении создаётся новый торрент. Чтобы начать докачку новой серии, пользователям необходимо сделать следующее:
- Остановить скачивание.
- Удалить старый торрент у себя из клиента (старые серии удалять не надо).
- Скачать новый торрент и запустить его у себя в клиенте вместо старого, при этом указать клиенту путь в старую папку куда и должно происходить скачивание новых серий.
Ваш клиент при этом должен произвести хеширование (проверку) старой папки (если не производит сам - помогите ему сделать это), и будет докачивать только те серии которых у вас ещё нет. Старые серии при этом не удаляются, а продолжают раздаваться!
Релиз от:
[Profile] [PM]
Display posts:    
Reply to topic

Current time is: 19-Oct 21:31

All times are UTC + 3



You cannot post new topics in this forum
You cannot reply to topics in this forum
You cannot edit your posts in this forum
You cannot delete your posts in this forum
You cannot vote in polls in this forum
You cannot attach files in this forum
You cannot download files in this forum