Соня Суперфрау [1-4 серия из 4] (2019) WEBRip-AVC от Files-х

Reply to topic
 
Author Message

Серый1779 ®

Gender: Male

Longevity: 11 months 7 days

Posts: 623

Location: Украина

Post 08-Oct-2019 20:14

[Quote]

Соня Суперфрау Год выпуска: 2019
Жанр: Документальный, драма
Выпущено: Россия, ООО «Студия документальных фильмов Андрея Никишина»
Режиссер: Андрей Никишин
В ролях: Ирина Воронова, Олег Царев, Антон Киселёв, Александр Макаршин, Яна Сухова, Михаил Кульченко, Артём Шкрабак и др.
О фильме: За ней охотилась тайная полиция Гоминьдана, ее отслеживала немецкая разведка Абвер и полиция Третьего рейха Гестапо, ее разыскивали секретные службы Японии, Италии и Швейцарии, по ее следу шли контрразведки Польши и Румынии, ее пыталось найти ЦРУ и хотели арестовать британские спецслужбы. Но никому так и не удалось этого сделать. Во всем мире эта женщина известна под своим литературным псевдонимом — Рут Вернер. Однако ее настоящее имя — Урсула Кучински. А в советской военной разведке она известна как Соня — легендарная разведчица, работавшая во многих странах мира и выполнявшая ответственные задания. Она участвовала в работе группы Рихарда Зорге в Китае, «Красной капеллы» в Швейцарии и помогала добывать информацию о разработке атомной бомбы. Четырехсерийная докудрама, снятая по мотивам мемуаров советской разведчицы Рут Вернер «Соня рапортует», а также по историческому исследованию Александра Колпакиди «Суперфрау из ГРУ», рассказывает не только о сложной, трудной и многогранной жизни разведчицы Сони, но и знакомит зрителей с большим кругом разнообразных людей, которые окружали женщину на протяжении всей ее жизни.
Качество: WEBRip-AVC
Видео: MPEG-4 AVC, ~ 2000 Кбит/с, 1024x576, 25 кадр/с
Аудио: AC3, 2 ch, 192 Кбит/с
Продолжительность: 4 x ~ 00:51:00
Перевод: Не требуется [Русский]
Cубтитры: нет

Скриншоты



MediaInfo

General
Unique ID : 172672210711675717693050914651588622452 (0x81E775472D29630CA482AD001CA17874)
Complete name : F:\Соня Суперфрау.(2019).WEBRip.(AVC).Files-x\01.Соня Суперфрау.(2019).WEBRip.(AVC).by.Серый1779.Files-x.mkv
Format : Matroska
Format version : Version 2
File size : 804 MiB
Duration : 51 min 16 s
Overall bit rate : 2 192 kb/s
Encoded date : UTC 2019-10-08 15:39:28
Writing application : mkvmerge v7.8.0 ('River Man') 32bit built on Apr 3 2015 12:11:22
Writing library : libebml v1.3.1 + libmatroska v1.4.2
Video
ID : 1
Format : AVC
Format/Info : Advanced Video Codec
Format profile : High@L4.1
Format settings : CABAC / 9 Ref Frames
Format settings, CABAC : Yes
Format settings, RefFrames : 9 frames
Codec ID : V_MPEG4/ISO/AVC
Duration : 51 min 16 s
Bit rate : 2 000 kb/s
Width : 1 024 pixels
Height : 576 pixels
Display aspect ratio : 16:9
Frame rate mode : Constant
Frame rate : 25.000 FPS
Color space : YUV
Chroma subsampling : 4:2:0
Bit depth : 8 bits
Scan type : Progressive
Bits/(Pixel*Frame) : 0.136
Stream size : 718 MiB (89%)
Writing library : x264 core 146 r2538 121396c
Encoding settings : cabac=1 / ref=9 / deblock=1:-2:-1 / analyse=0x3:0x133 / me=umh / subme=9 / psy=1 / psy_rd=1.00:0.15 / mixed_ref=1 / me_range=32 / chroma_me=1 / trellis=2 / 8x8dct=1 / cqm=0 / deadzone=21,11 / fast_pskip=0 / chroma_qp_offset=-3 / threads=18 / lookahead_threads=3 / sliced_threads=0 / nr=0 / decimate=1 / interlaced=0 / bluray_compat=0 / constrained_intra=0 / bframes=9 / b_pyramid=2 / b_adapt=2 / b_bias=0 / direct=1 / weightb=1 / open_gop=0 / weightp=2 / keyint=250 / keyint_min=25 / scenecut=40 / intra_refresh=0 / rc=2pass / mbtree=0 / bitrate=2000 / ratetol=1.0 / qcomp=0.60 / qpmin=0 / qpmax=69 / qpstep=4 / cplxblur=20.0 / qblur=0.5 / ip_ratio=1.40 / pb_ratio=1.30 / aq=2:1.00
Default : Yes
Forced : No
Color range : Limited
Color primaries : BT.709
Transfer characteristics : BT.709
Matrix coefficients : BT.709
Audio
ID : 2
Format : AC-3
Format/Info : Audio Coding 3
Format settings, Endianness : Big
Codec ID : A_AC3
Duration : 51 min 16 s
Bit rate mode : Constant
Bit rate : 192 kb/s
Channel(s) : 2 channels
Channel positions : Front: L R
Sampling rate : 48.0 kHz
Frame rate : 31.250 FPS (1536 SPF)
Bit depth : 16 bits
Compression mode : Lossy
Stream size : 70.4 MiB (9%)
Service kind : Complete Main
Default : Yes
Forced : No

Внимание! Раздача ведётся путём добавления новых серий

Раздача ведётся путём добавления новых серий, при каждом добавлении создаётся новый торрент. Чтобы начать докачку новой серии, пользователям необходимо сделать следующее:
- Остановить скачивание.
- Удалить старый торрент у себя из клиента (старые серии удалять не надо).
- Скачать новый торрент и запустить его у себя в клиенте вместо старого, при этом указать клиенту путь в старую папку куда и должно происходить скачивание новых серий.
Ваш клиент при этом должен произвести хеширование (проверку) старой папки (если не производит сам - помогите ему сделать это), и будет докачивать только те серии которых у вас ещё нет. Старые серии при этом не удаляются, а продолжают раздаваться!
Релиз от:
[Profile] [PM]
Display posts:    
Reply to topic

Current time is: 19-Oct 21:34

All times are UTC + 3



You cannot post new topics in this forum
You cannot reply to topics in this forum
You cannot edit your posts in this forum
You cannot delete your posts in this forum
You cannot vote in polls in this forum
You cannot attach files in this forum
You cannot download files in this forum