Соня Суперфрау [1-4 серии из 4] (2019) WEBRip от Files-x

Reply to topic
 
Author Message

papa1951deda ®

Gender: Male

Longevity: 10 months 29 days

Posts: 331

Location: Казахстан

Post 09-Oct-2019 14:39

[Quote]

Соня Суперфрау Год выпуска: 2019
Жанр: Документальный, драма
Выпущено: Россия, ООО «Студия документальных фильмов Андрея Никишина»
Режиссер: Андрей Никишин
В ролях: Ирина Воронова, Олег Царев, Антон Киселёв, Александр Макаршин, Яна Сухова, Михаил Кульченко, Артём Шкрабак и др.
О фильме: За ней охотилась тайная полиция Гоминьдана, ее отслеживала немецкая разведка Абвер и полиция Третьего рейха Гестапо, ее разыскивали секретные службы Японии, Италии и Швейцарии, по ее следу шли контрразведки Польши и Румынии, ее пыталось найти ЦРУ и хотели арестовать британские спецслужбы. Но никому так и не удалось этого сделать. Во всем мире эта женщина известна под своим литературным псевдонимом — Рут Вернер. Однако ее настоящее имя — Урсула Кучински. А в советской военной разведке она известна как Соня — легендарная разведчица, работавшая во многих странах мира и выполнявшая ответственные задания. Она участвовала в работе группы Рихарда Зорге в Китае, «Красной капеллы» в Швейцарии и помогала добывать информацию о разработке атомной бомбы. Четырехсерийная докудрама, снятая по мотивам мемуаров советской разведчицы Рут Вернер «Соня рапортует», а также по историческому исследованию Александра Колпакиди «Суперфрау из ГРУ», рассказывает не только о сложной, трудной и многогранной жизни разведчицы Сони, но и знакомит зрителей с большим кругом разнообразных людей, которые окружали женщину на протяжении всей ее жизни.
Качество: WEBRip
Видео: XviD, ~ 1600 Кбит/с, 720x400, 25 кадр/с
Аудио: AC3, 2 ch, 192 Кбит/с
Продолжительность: 4 x ~ 00:51:00
Перевод: Не требуется [Русский]
Cубтитры: нет

Скриншоты

MediaInfo

General
Complete name : C:\00\6354\Соня Суперфрау. WEB-DLRip. Files-x\02. Соня Суперфрау. WEB-DLRip. Files-x..avi
Format : AVI
Format/Info : Audio Video Interleave
File size : 658 MiB
Duration : 51mn 5s
Overall bit rate : 1 801 Kbps
Writing application : VirtualDubMod 1.5.10.3 | www.virtualdub-fr.org || (build 2550/release)
Writing library : VirtualDubMod build 2550/release
Video
ID : 0
Format : MPEG-4 Visual
Format profile : Advanced Simple@L5
Format settings, BVOP : 1
Format settings, QPel : No
Format settings, GMC : No warppoints
Format settings, Matrix : Custom
Codec ID : XVID
Codec ID/Hint : XviD
Duration : 51mn 5s
Bit rate : 1 600 Kbps
Width : 720 pixels
Height : 400 pixels
Display aspect ratio : 16:9
Frame rate : 25.000 fps
Color space : YUV
Chroma subsampling : 4:2:0
Bit depth : 8 bits
Scan type : Progressive
Compression mode : Lossy
Bits/(Pixel*Frame) : 0.222
Stream size : 585 MiB (89%)
Writing library : XviD 73
Audio
ID : 1
Format : AC-3
Format/Info : Audio Coding 3
Mode extension : CM (complete main)
Codec ID : 2000
Duration : 51mn 5s
Bit rate mode : Constant
Bit rate : 192 Kbps
Channel(s) : 2 channels
Channel positions : Front: L R
Sampling rate : 48.0 KHz
Bit depth : 16 bits
Compression mode : Lossy
Stream size : 70.2 MiB (11%)
Alignment : Split accross interleaves
Interleave, duration : 40 ms (1.00 video frame)
Interleave, preload duration : 500 ms

Внимание! Раздача ведётся путём добавления новых серий

Раздача ведётся путём добавления новых серий, при каждом добавлении создаётся новый торрент. Чтобы начать докачку новой серии, пользователям необходимо сделать следующее:
- Остановить скачивание.
- Удалить старый торрент у себя из клиента (старые серии удалять не надо).
- Скачать новый торрент и запустить его у себя в клиенте вместо старого, при этом указать клиенту путь в старую папку куда и должно происходить скачивание новых серий.
Ваш клиент при этом должен произвести хеширование (проверку) старой папки (если не производит сам - помогите ему сделать это), и будет докачивать только те серии которых у вас ещё нет. Старые серии при этом не удаляются, а продолжают раздаваться!
Релиз от:
[Profile] [PM]
Display posts:    
Reply to topic

Current time is: 19-Oct 21:33

All times are UTC + 3



You cannot post new topics in this forum
You cannot reply to topics in this forum
You cannot edit your posts in this forum
You cannot delete your posts in this forum
You cannot vote in polls in this forum
You cannot attach files in this forum
You cannot download files in this forum