С Богами: Последние 49 дней / Singwa Hamgge: Ingwa Yeon (2018) HDRip

Reply to topic
 
Author Message

Monk ®

Gender: Male

Longevity: 8 months 8 days

Posts: 7519

Location: Казань

Post 03-Dec-2018 09:54

[Quote]

С Богами: Последние 49 дней / Singwa Hamgge: Ingwa Yeon Год выпуска: 2018
Жанр: Драма, фэнтези, приключения
Выпущено: Корея Южная, Dexter Studios, Realies Pictures
Режиссер: Ён Хва Ким
В ролях: Чон У Ха, Джи Хун Чжу, Хян Ги Ким, Дон Сок Ма, Дон Ук Ким, Чжон Чжэ Ли, Вон Хи Им, Хан Чхоль Чо, Иль У Нам, Чжи Хун Чон, Кён Су До, Гван Чан, Су Чон Е, Хэ Кён Чон, Кён Ён Ли, Мин Чон Ким, Дон Иль Сон, Чжун Хёк Ли (II)
О фильме: Бывший мстительный призрак Ким Су-хон предстаёт перед королём Подземного мира, и ангел смерти Кан-ним просит для него прохождение обычной процедуры — он уверен, что сможет убедить судей в невиновности своего подопечного. Король соглашается, но ставит условия: в течение 49 дней ангелы должны вознести душу старика Хо, чьё земное время давно истекло, и доказать невиновность Су-хона. Душу защищает Домовой, который мало того, что регулярно выписывает тумаков пришедшим за ней, так ещё и проявился перед дедом и его малолетним внуком и помогает им по хозяйству. При ближайшем знакомстве с Домовым ангелы выясняют, что тот помнит подробности их жизней и связь друг другом тысячелетней давности.

Качество: HDRip
Видео: XviD, 1533 Кбит/с, 720x304
Аудио: Русский (АС3, 2 ch, 192 Кбит/с), корейский (АС3, 6 ch, 448 Кбит/с)
Продолжительность: 02:21:21
Перевод: Любительский многоголосый [STEPonee], любительский двухголосый [Ворон, Wenlana / SOFTBOX]
Субтитры: Русские, английские, китайские

Скриншоты



MediaInfo

Общее
Полное имя : C:\S.Bogami.Poslednie.49.dnej.2018.HDRip\S.Bogami.Poslednie.49.dnej.2018.HDRip.avi
Формат : AVI
Формат/Информация : Audio Video Interleave
Профиль формата : OpenDML
Размер файла : 2,11 Гбайт
Продолжительность : 2 ч. 21 м.
Общий поток : 2133 Кбит/сек
Название фильма : С Богами: Последние 49 дней / Singwa Hamgge: Ingwa Yeon (2018) HDRip
Режиссёр : Ким Ён-хва / Kim Yong-hwa
Жанр : Драма, фэнтези, приключения
Программа кодирования : VirtualDubMod 1.5.10.2 (build 2542/release)
Формат оригинала/Имя : Художественный фильм
Авторское право : Dexter Studios, Realies Pictures
Примечание : vitolinform
Видео
Идентификатор : 0
Формат : MPEG-4 Visual
Профиль формата : Advanced Simple@L5
Настройки формата : BVOP2
Параметр BVOP формата : 2
Параметр QPel формата : Нет
Параметр GMC формата : Без точки перехода
Параметр матрицы формата : Default (MPEG)
Идентификатор кодека : XVID
Идентификатор кодека/Подсказка : XviD
Продолжительность : 2 ч. 21 м.
Битрейт : 1533 Кбит/сек
Ширина : 720 пикселей
Высота : 304 пикселя
Соотношение сторон : 2,35:1
Частота кадров : 24,000 кадра/сек
Цветовое пространство : YUV
Субдискретизация насыщенности : 4:2:0
Битовая глубина : 8 бит
Тип развёртки : Прогрессивная
Метод сжатия : С потерями
Бит/(Пиксели*Кадры) : 0.292
Размер потока : 1,51 Гбайт (72%)
Библиотека кодирования : XviD 67
Аудио #1
Идентификатор : 1
Формат : AC-3
Формат/Информация : Audio Coding 3
Идентификатор кодека : 2000
Продолжительность : 2 ч. 21 м.
Вид битрейта : Постоянный
Битрейт : 192 Кбит/сек
Каналы : 2 канала
Расположение каналов : Front: L R
Частота : 48,0 КГц
Частота кадров : 31,250 кадров/сек (1536 SPF)
Битовая глубина : 16 бит
Метод сжатия : С потерями
Размер потока : 194 Мбайт (9%)
Выравнивание : Разделение по промежуткам
Продолжительность промежутка : 42 мс. (1,00 видеокадр)
Время предзагрузки промежутка : 500 мс.
Заголовок : Russian (MVO STEPonee)
ServiceKind/String : Complete Main
Аудио #2
Идентификатор : 2
Формат : AC-3
Формат/Информация : Audio Coding 3
Идентификатор кодека : 2000
Продолжительность : 2 ч. 21 м.
Вид битрейта : Постоянный
Битрейт : 192 Кбит/сек
Каналы : 2 канала
Расположение каналов : Front: L R
Частота : 48,0 КГц
Частота кадров : 31,250 кадров/сек (1536 SPF)
Битовая глубина : 16 бит
Метод сжатия : С потерями
Размер потока : 194 Мбайт (9%)
Выравнивание : Разделение по промежуткам
Продолжительность промежутка : 42 мс. (1,00 видеокадр)
Время предзагрузки промежутка : 500 мс.
Заголовок : Russian (DVO Ворон, Wenlana)
ServiceKind/String : Complete Main
Аудио #3
Идентификатор : 3
Формат : AC-3
Формат/Информация : Audio Coding 3
Идентификатор кодека : 2000
Продолжительность : 2 ч. 21 м.
Вид битрейта : Постоянный
Битрейт : 192 Кбит/сек
Каналы : 2 канала
Расположение каналов : Front: L R
Частота : 48,0 КГц
Частота кадров : 31,250 кадров/сек (1536 SPF)
Битовая глубина : 16 бит
Метод сжатия : С потерями
Размер потока : 194 Мбайт (9%)
Выравнивание : Разделение по промежуткам
Продолжительность промежутка : 42 мс. (1,00 видеокадр)
Время предзагрузки промежутка : 500 мс.
Заголовок : Russian (DVO SOFTBOX)
ServiceKind/String : Complete Main
[Profile] [PM]
Display posts:    
Reply to topic

Current time is: 22-Jul 22:35

All times are UTC + 3



You cannot post new topics in this forum
You cannot reply to topics in this forum
You cannot edit your posts in this forum
You cannot delete your posts in this forum
You cannot vote in polls in this forum
You cannot attach files in this forum
You cannot download files in this forum