С Богами. Последние 49 дней / Singwa Hamgge: Ingwa Yeon (2018) BDRip AVC | STEPonee, Ворон и Wenlana, SOFTBOX

Reply to topic
 
Author Message

Monk ®

Gender: Male

Longevity: 2 years 11 months

Posts: 14033

Location: Казань

Post 03-Dec-2018 09:55

[Quote]

С Богами: Последние 49 дней / Singwa Hamgge: Ingwa Yeon Год выпуска: 2018
Жанр: Драма, фэнтези, приключения
Выпущено: Корея Южная, Dexter Studios, Realies Pictures
Режиссер: Ён Хва Ким
В ролях: Чон У Ха, Джи Хун Чжу, Хян Ги Ким, Дон Сок Ма, Дон Ук Ким, Чжон Чжэ Ли, Вон Хи Им, Хан Чхоль Чо, Иль У Нам, Чжи Хун Чон, Кён Су До, Гван Чан, Су Чон Е, Хэ Кён Чон, Кён Ён Ли, Мин Чон Ким, Дон Иль Сон, Чжун Хёк Ли (II)
О фильме: Бывший мстительный призрак Ким Су-хон предстаёт перед королём Подземного мира, и ангел смерти Кан-ним просит для него прохождение обычной процедуры — он уверен, что сможет убедить судей в невиновности своего подопечного. Король соглашается, но ставит условия: в течение 49 дней ангелы должны вознести душу старика Хо, чьё земное время давно истекло, и доказать невиновность Су-хона. Душу защищает Домовой, который мало того, что регулярно выписывает тумаков пришедшим за ней, так ещё и проявился перед дедом и его малолетним внуком и помогает им по хозяйству. При ближайшем знакомстве с Домовым ангелы выясняют, что тот помнит подробности их жизней и связь друг другом тысячелетней давности.
Качество: BDRip AVC
Видео: MPEG-4 AVC, 2146 Kбит/с, 1024x428, 24 Кадр/с
Аудио: Русский (АС3, 2 ch, 192 Кбит/с), корейский (AC3, 6 ch, 448 Кбит/с)
Продолжительность: 02:21:21
Перевод: Любительский многоголосый [STEPonee], любительский двухголосый [Ворон и Wenlana, SOFTBOX]
Субтитры: Русские

Скриншоты


MediaInfo

Общее
Уникальный идентификатор : 190673836563776891413325461283974246496 (0x8F7271F504C4DAC4BBAB5F385EA17060)
Полное имя : D:\Video\С Богами. Последние 49 дней.2018.BDRip-AVC by msltel.mkv
Формат : Matroska
Версия формата : Version 4
Размер файла : 3,13 Гбайт
Продолжительность : 2 ч. 21 м.
Общий поток : 3173 Кбит/сек
Название фильма : Rip by msltel
Дата кодирования : UTC 2020-02-14 04:37:49
Программа кодирования : mkvmerge v8.2.0 ('World of Adventure') 64bit
Библиотека кодирования : libebml v1.3.1 + libmatroska v1.4.2
Видео
Идентификатор : 1
Формат : AVC
Формат/Информация : Advanced Video Codec
Профиль формата : High@L4.1
Настройки формата : CABAC / 14 Ref Frames
Параметр CABAC формата : Да
Параметр RefFrames формата : 14 кадров
Идентификатор кодека : V_MPEG4/ISO/AVC
Продолжительность : 2 ч. 21 м.
Битрейт : 2146 Кбит/сек
Ширина : 1024 пикселя
Высота : 428 пикселей
Соотношение сторон : 2,40:1
Режим частоты кадров : Постоянный
Частота кадров : 24,000 кадра/сек
Цветовое пространство : YUV
Субдискретизация насыщенности : 4:2:0
Битовая глубина : 8 бит
Тип развёртки : Прогрессивная
Бит/(Пиксели*Кадры) : 0.204
Размер потока : 2,12 Гбайт (68%)
Библиотека кодирования : x264 core 157 r2969 d4099dd
Настройки программы : cabac=1 / ref=14 / deblock=1:-1:-1 / analyse=0x3:0x113 / me=umh / subme=11 / psy=1 / psy_rd=1.00:0.15 / mixed_ref=1 / me_range=32 / chroma_me=1 / trellis=2 / 8x8dct=1 / cqm=0 / deadzone=21,11 / fast_pskip=0 / chroma_qp_offset=-3 / threads=6 / lookahead_threads=1 / sliced_threads=0 / nr=0 / decimate=1 / interlaced=0 / bluray_compat=0 / constrained_intra=0 / bframes=10 / b_pyramid=2 / b_adapt=2 / b_bias=0 / direct=1 / weightb=1 / open_gop=0 / weightp=2 / keyint=230 / keyint_min=23 / scenecut=40 / intra_refresh=0 / rc_lookahead=40 / rc=crf / mbtree=1 / crf=16.5 / qcomp=0.60 / qpmin=0 / qpmax=69 / qpstep=4 / vbv_maxrate=50000 / vbv_bufsize=62500 / crf_max=0.0 / nal_hrd=none / filler=0 / ip_ratio=1.40 / aq=1:1.00
Язык : Korean
Default : Да
Forced : Нет
Аудио #1
Идентификатор : 2
Формат : AC-3
Формат/Информация : Audio Coding 3
Коммерческое название : Dolby Digital
Идентификатор кодека : A_AC3
Продолжительность : 2 ч. 21 м.
Вид битрейта : Постоянный
Битрейт : 192 Кбит/сек
Каналы : 2 канала
ChannelLayout : L R
Частота : 48,0 КГц
Частота кадров : 31,250 кадров/сек (1536 SPF)
Метод сжатия : С потерями
Размер потока : 194 Мбайт (6%)
Заголовок : MVO STEPonee
Язык : Russian
ServiceKind/String : Complete Main
Default : Да
Forced : Нет
Аудио #2
Идентификатор : 3
Формат : AC-3
Формат/Информация : Audio Coding 3
Коммерческое название : Dolby Digital
Идентификатор кодека : A_AC3
Продолжительность : 2 ч. 21 м.
Вид битрейта : Постоянный
Битрейт : 192 Кбит/сек
Каналы : 2 канала
ChannelLayout : L R
Частота : 48,0 КГц
Частота кадров : 31,250 кадров/сек (1536 SPF)
Метод сжатия : С потерями
Размер потока : 194 Мбайт (6%)
Заголовок : DVO Ворон и Wenlana
Язык : Russian
ServiceKind/String : Complete Main
Default : Нет
Forced : Нет
Аудио #3
Идентификатор : 4
Формат : AC-3
Формат/Информация : Audio Coding 3
Коммерческое название : Dolby Digital
Идентификатор кодека : A_AC3
Продолжительность : 2 ч. 21 м.
Вид битрейта : Постоянный
Битрейт : 192 Кбит/сек
Каналы : 2 канала
ChannelLayout : L R
Частота : 48,0 КГц
Частота кадров : 31,250 кадров/сек (1536 SPF)
Метод сжатия : С потерями
Размер потока : 194 Мбайт (6%)
Заголовок : DVO SOFTBOX
Язык : Russian
ServiceKind/String : Complete Main
Default : Нет
Forced : Нет
Аудио #4
Идентификатор : 5
Формат : AC-3
Формат/Информация : Audio Coding 3
Коммерческое название : Dolby Digital
Идентификатор кодека : A_AC3
Продолжительность : 2 ч. 21 м.
Вид битрейта : Постоянный
Битрейт : 448 Кбит/сек
Каналы : 6 каналов
ChannelLayout : L R C LFE Ls Rs
Частота : 48,0 КГц
Частота кадров : 31,250 кадров/сек (1536 SPF)
Метод сжатия : С потерями
Размер потока : 453 Мбайт (14%)
Заголовок : original
Язык : Korean
ServiceKind/String : Complete Main
Default : Нет
Forced : Нет
Текст #1
Идентификатор : 6
Формат : ASS
Идентификатор кодека : S_TEXT/ASS
Идентификатор кодека/Информация : Advanced Sub Station Alpha
Продолжительность : 2 ч. 15 м.
Битрейт : 3 бит/сек
ElementCount : 24
Метод сжатия : Без потерь
Размер потока : 3,00 Кбайт (0%)
Заголовок : русские форсированные
Язык : Russian
Default : Да
Forced : Да
Текст #2
Идентификатор : 7
Формат : ASS
Идентификатор кодека : S_TEXT/ASS
Идентификатор кодека/Информация : Advanced Sub Station Alpha
Продолжительность : 2 ч. 17 м.
Битрейт : 113 бит/сек
ElementCount : 1639
Метод сжатия : Без потерь
Размер потока : 114 Кбайт (0%)
Заголовок : русские cardinals
Язык : Russian
Default : Нет
Forced : Нет
Текст #3
Идентификатор : 8
Формат : ASS
Идентификатор кодека : S_TEXT/ASS
Идентификатор кодека/Информация : Advanced Sub Station Alpha
Продолжительность : 2 ч. 17 м.
Битрейт : 122 бит/сек
ElementCount : 1718
Метод сжатия : Без потерь
Размер потока : 123 Кбайт (0%)
Заголовок : русские Zipper
Язык : Russian
Default : Нет
Forced : Нет
Меню
00:00:00.000 : en:Chapter 01
00:12:40.833 : en:Chapter 02
00:27:19.625 : en:Chapter 03
00:38:54.541 : en:Chapter 04
00:54:23.916 : en:Chapter 05
01:09:06.416 : en:Chapter 06
01:24:46.916 : en:Chapter 07
01:33:47.333 : en:Chapter 08
01:55:52.291 : en:Chapter 09
02:09:44.250 : en:Chapter 10
[Profile] [PM]
Display posts:    
Reply to topic

Current time is: 19-Oct 04:35

All times are UTC + 3



You cannot post new topics in this forum
You cannot reply to topics in this forum
You cannot edit your posts in this forum
You cannot delete your posts in this forum
You cannot vote in polls in this forum
You cannot attach files in this forum
You cannot download files in this forum