С Богами: Последние 49 дней / Singwa Hamgge: Ingwa Yeon (2018) BDRip 720p

Reply to topic
 
Author Message

Monk ®

Gender: Male

Longevity: 8 months 8 days

Posts: 7519

Location: Казань

Post 03-Dec-2018 09:57

[Quote]

С Богами: Последние 49 дней / Singwa Hamgge: Ingwa Yeon Год выпуска: 2018
Жанр: Драма, фэнтези, приключения
Выпущено: Корея Южная, Dexter Studios, Realies Pictures
Режиссер: Ён Хва Ким
В ролях: Чон У Ха, Джи Хун Чжу, Хян Ги Ким, Дон Сок Ма, Дон Ук Ким, Чжон Чжэ Ли, Вон Хи Им, Хан Чхоль Чо, Иль У Нам, Чжи Хун Чон, Кён Су До, Гван Чан, Су Чон Е, Хэ Кён Чон, Кён Ён Ли, Мин Чон Ким, Дон Иль Сон, Чжун Хёк Ли (II)
О фильме: Бывший мстительный призрак Ким Су-хон предстаёт перед королём Подземного мира, и ангел смерти Кан-ним просит для него прохождение обычной процедуры — он уверен, что сможет убедить судей в невиновности своего подопечного. Король соглашается, но ставит условия: в течение 49 дней ангелы должны вознести душу старика Хо, чьё земное время давно истекло, и доказать невиновность Су-хона. Душу защищает Домовой, который мало того, что регулярно выписывает тумаков пришедшим за ней, так ещё и проявился перед дедом и его малолетним внуком и помогает им по хозяйству. При ближайшем знакомстве с Домовым ангелы выясняют, что тот помнит подробности их жизней и связь друг другом тысячелетней давности.

Качество: BDRip 720p
Видео: MPEG-4 AVC, 7965 Кбит/с, 1280x536
Аудио: Русский (АС3, 2 ch, 192 Кбит/с), корейский (АС3, 6 ch, 640 Кбит/с)
Продолжительность: 02:21:21
Перевод: Любительский многоголосый [STEPonee], любительский двухголосый [Ворон, Wenlana / SOFTBOX]
Субтитры: Русские, английские, китайские

Скриншоты


MediaInfo

General
Unique ID : 241857545706402187170569197498881776024 (0xB5F411A70C39A64FB999EC4DB12B9998)
Complete name : С Богами. Последние 49 дней.2018.MVO.720p.BluRay.x264-WiKi.mkv
Format : Matroska
Format version : Version 4
File size : 9.25 GiB
Duration : 2 h 21 min
Overall bit rate : 9 367 kb/s
Movie name : Along with the Gods: The Last 49 Days [2018] [720p] MVO, DVO, RUSSUB
Encoded date : UTC 2018-12-01 02:24:21
Writing application : mkvmerge v7.8.0 ('River Man') 32bit built on Mar 27 2015 16:18:02
Writing library : libebml v1.3.1 + libmatroska v1.4.2
Attachments : neucha.otf / calibrib.ttf / calibriz.ttf / FRAMDCN.TTF / YanoneKaffeesatz-Bold.ttf / Bird House.otf / AA-BebasNeue.ttf / Baltimore-Nouveau.ttf / JakobCTT Regular.ttf
DIRECTOR : Yong-hwa Kim
GENRE : Action, Drama, Fantasy
IMDB : tt8116428
KEYWORDS : rutracker.org , RG Orient Extreme Films , profile.php?mode=viewprofile&u=22488948
Video
ID : 1
Format : AVC
Format/Info : Advanced Video Codec
Format profile : High@L4.1
Format settings : CABAC / 12 Ref Frames
Format settings, CABAC : Yes
Format settings, RefFrames : 12 frames
Codec ID : V_MPEG4/ISO/AVC
Duration : 2 h 21 min
Bit rate : 7 965 kb/s
Width : 1 280 pixels
Height : 536 pixels
Display aspect ratio : 2.40:1
Frame rate mode : Constant
Frame rate : 24.000 FPS
Color space : YUV
Chroma subsampling : 4:2:0
Bit depth : 8 bits
Scan type : Progressive
Bits/(Pixel*Frame) : 0.484
Stream size : 7.86 GiB (85%)
Title : 720p @ WiKi
Writing library : x264 core 155 r2867+82 a249126 t_mod_Custom_2 [8-bit@all X86_64]
Encoding settings : cabac=1 / ref=12 / deblock=1:-3:-3 / analyse=0x3:0x133 / me=umh / subme=10 / psy=1 / fade_compensate=0.00 / psy_rd=1.00:0.00 / mixed_ref=1 / me_range=32 / chroma_me=1 / trellis=2 / 8x8dct=1 / cqm=0 / deadzone=21,11 / fast_pskip=0 / chroma_qp_offset=-2 / threads=12 / lookahead_threads=2 / sliced_threads=0 / nr=0 / decimate=0 / interlaced=0 / bluray_compat=0 / constrained_intra=0 / fgo=0 / bframes=8 / b_pyramid=2 / b_adapt=2 / b_bias=0 / direct=3 / weightb=1 / open_gop=0 / weightp=2 / keyint=250 / keyint_min=24 / scenecut=40 / intra_refresh=0 / rc_lookahead=60 / rc=crf / mbtree=0 / crf=14.6000 / qcomp=0.60 / qpmin=0:0:0 / qpmax=69:69:69 / qpstep=4 / vbv_maxrate=62500 / vbv_bufsize=78125 / crf_max=0.0 / nal_hrd=none / filler=0 / ip_ratio=1.15 / pb_ratio=1.15 / aq=3:0.85 / aq-sensitivity=10.00 / aq-factor=1.00:1.00:1.00 / aq2=0 / aq3=0 / zones=151914,152130,crf=14/164189,164348,crf=13.5/177397,177716,crf=14/179113,179173,crf=14/179864,180018,crf=14/180150,180287,crf=13.5/180631,180747,crf=13.5/182478,182556,crf=13.5/183883,184024,crf=14
Language : Korean
Default : Yes
Forced : No
Audio #1
ID : 2
Format : AC-3
Format/Info : Audio Coding 3
Commercial name : Dolby Digital
Codec ID : A_AC3
Duration : 2 h 21 min
Bit rate mode : Constant
Bit rate : 192 kb/s
Channel(s) : 2 channels
Channel layout : L R
Sampling rate : 48.0 kHz
Frame rate : 31.250 FPS (1536 SPF)
Bit depth : 16 bits
Compression mode : Lossy
Stream size : 194 MiB (2%)
Title : MVO [STEPonee]
Language : Russian
Service kind : Complete Main
Default : Yes
Forced : No
Audio #2
ID : 3
Format : AC-3
Format/Info : Audio Coding 3
Commercial name : Dolby Digital
Codec ID : A_AC3
Duration : 2 h 21 min
Bit rate mode : Constant
Bit rate : 192 kb/s
Channel(s) : 2 channels
Channel layout : L R
Sampling rate : 48.0 kHz
Frame rate : 31.250 FPS (1536 SPF)
Bit depth : 16 bits
Compression mode : Lossy
Stream size : 194 MiB (2%)
Title : DVO [Ворон, Wenlana]
Language : Russian
Service kind : Complete Main
Default : No
Forced : No
Audio #3
ID : 4
Format : AC-3
Format/Info : Audio Coding 3
Commercial name : Dolby Digital
Codec ID : A_AC3
Duration : 2 h 21 min
Bit rate mode : Constant
Bit rate : 192 kb/s
Channel(s) : 2 channels
Channel layout : L R
Sampling rate : 48.0 kHz
Frame rate : 31.250 FPS (1536 SPF)
Bit depth : 16 bits
Compression mode : Lossy
Stream size : 194 MiB (2%)
Title : DVO [SOFTBOX]
Language : Russian
Service kind : Complete Main
Default : No
Forced : No
Audio #4
ID : 5
Format : AC-3
Format/Info : Audio Coding 3
Commercial name : Dolby Digital
Codec ID : A_AC3
Duration : 2 h 21 min
Bit rate mode : Constant
Bit rate : 640 kb/s
Channel(s) : 6 channels
Channel layout : L R C LFE Ls Rs
Sampling rate : 48.0 kHz
Frame rate : 31.250 FPS (1536 SPF)
Bit depth : 16 bits
Compression mode : Lossy
Stream size : 647 MiB (7%)
Language : Korean
Service kind : Complete Main
Default : No
Forced : No
Text #1
ID : 6
Format : ASS
Codec ID : S_TEXT/ASS
Codec ID/Info : Advanced Sub Station Alpha
Compression mode : Lossless
Title : forced for DVO [Ворон, Wenlana] (ФСГ 'Zipper')
Language : Russian
Default : No
Forced : No
Text #2
ID : 7
Format : ASS
Codec ID : S_TEXT/ASS
Codec ID/Info : Advanced Sub Station Alpha
Compression mode : Lossless
Title : ФСГ 'cardinals'
Language : Russian
Default : No
Forced : No
Text #3
ID : 8
Format : ASS
Codec ID : S_TEXT/ASS
Codec ID/Info : Advanced Sub Station Alpha
Compression mode : Lossless
Title : ФСГ 'Zipper'
Language : Russian
Default : No
Forced : No
Text #4
ID : 9
Format : UTF-8
Codec ID : S_TEXT/UTF8
Codec ID/Info : UTF-8 Plain Text
Title : bluray
Language : English
Default : No
Forced : No
Text #5
ID : 10
Format : UTF-8
Codec ID : S_TEXT/UTF8
Codec ID/Info : UTF-8 Plain Text
Title : CHS
Language : Chinese
Default : No
Forced : No
Text #6
ID : 11
Format : UTF-8
Codec ID : S_TEXT/UTF8
Codec ID/Info : UTF-8 Plain Text
Title : CHT
Language : Chinese
Default : No
Forced : No
Menu
00:00:00.000 : en:00:00:00.000
00:12:40.833 : en:00:12:40.833
00:27:19.625 : en:00:27:19.625
00:38:54.542 : en:00:38:54.542
00:54:23.917 : en:00:54:23.917
01:09:06.417 : en:01:09:06.417
01:24:46.917 : en:01:24:46.917
01:33:47.542 : en:01:33:47.542
01:55:52.542 : en:01:55:52.542
02:09:44.250 : en:02:09:44.250
[Profile] [PM]
Display posts:    
Reply to topic

Current time is: 22-Jul 22:35

All times are UTC + 3



You cannot post new topics in this forum
You cannot reply to topics in this forum
You cannot edit your posts in this forum
You cannot delete your posts in this forum
You cannot vote in polls in this forum
You cannot attach files in this forum
You cannot download files in this forum