Школа / The School (2018) BDRip AVC | iTunes

Reply to topic
 
Author Message

Monk ®

Gender: Male

Longevity: 11 months 4 days

Posts: 9032

Location: Казань

Post 03-Dec-2018 10:31

[Quote]

Школа / The School Год выпуска: 2018
Жанр: Ужасы, триллер
Выпущено: Австралия, Bronte Pictures, Head Gear Films
Режиссер: Сторм Эшвуд
В ролях: Меган Друри, Милли Олкок, Николас Хоуп, Тексас Уоттерстон, Уилл МакДональд, Джек Равалд, Алексиа Сантосуссо, Хони Поа, Сэсси Соупидис, Джаспер Ллойд, Тереза МакКарти, Кристиан Уиллис, Шерил Крэйг, Шанель Мюллер, Айви Ли, Леа Эшвуд, Арна Роджерс, Ванесса Роджерс
О фильме: Доктор Эми Винтеркрейг на протяжении двух лет тщетно мечтает о том, чтобы ее сын вышел из комы. Внезапно очутившись в пространстве между пространствами, где обитают души не нашедших покоя детей, пытаясь совладать с потоком мыслей и страхом сделать что-то не так, Эми должна пройтись по месту, которое некогда было школой и среди бесконечной вереницы коридоров, лестниц и кабинетов отыскать душу своего собственного ребенка. Однако, чтобы добиться желаемого, женщине необходимо проявить сильную волю и смекалку, так как на ее пути оказывается слишком много врагов, которые не спешат помогать ей в поисках сына. И если совершить хотя бы одну ошибку, то можно остаться в школе гораздо дольше предполагаемого срока, или не выбраться из нее вообще.

Качество: BDRip AVC
Видео: MPEG-4 AVC, 1937 Кбит/с, 1024x428, 23.976 кадр/с
Аудио: Русский (AC3, 6 ch, 384 Кбит/с), английский (AC3, 6 ch, 448 Кбит/с)
Продолжительность: 01:28:47
Перевод: Дублированный [iTunes]
Субтитры: Английские

Скриншоты



MediaInfo

Общее
Уникальный идентификатор : 141892220086168603018447370843380761006 (0x6ABF7292E559F65BB0AC637D2A7BC1AE)
Полное имя : F:\OlLanDGroup\The.School.2018.BDRip(AVC).OlLanDGroup.mkv
Формат : Matroska
Версия формата : Version 4 / Version 2
Размер файла : 1,72 Гбайт
Продолжительность : 1 ч. 28 м.
Общий поток : 2769 Кбит/сек
Название фильма : The.School.2018 #TorpedoUK#
Дата кодирования : UTC 2018-12-02 11:14:29
Программа кодирования : mkvmerge v25.0.0 ('Prog Noir') 64-bit
Библиотека кодирования : libebml v1.3.6 + libmatroska v1.4.9
Обложка : Yes
Attachments : small_cover.jpg / small_cover_land.jpg / cover.jpg / cover_land.jpg
Видео
Идентификатор : 1
Формат : AVC
Формат/Информация : Advanced Video Codec
Профиль формата : High@L4.1
Параметр CABAC формата : Да
Параметр ReFrames формата : 10 кадров
Идентификатор кодека : V_MPEG4/ISO/AVC
Продолжительность : 1 ч. 28 м.
Битрейт : 1937 Кбит/сек
Ширина : 1024 пикселя
Высота : 428 пикселей
Соотношение сторон : 2,40:1
Режим частоты кадров : Постоянный
Частота кадров : 23,976 (24000/1001) кадра/сек
Цветовое пространство : YUV
Субдискретизация насыщенности : 4:2:0
Битовая глубина : 8 бит
Тип развёртки : Прогрессивная
Бит/(Пиксели*Кадры) : 0.184
Размер потока : 1,20 Гбайт (70%)
Библиотека кодирования : x264 core 146 r2538 121396c
Настройки программы : cabac=1 / ref=10 / deblock=1:-2:-3 / analyse=0x3:0x113 / me=umh / subme=11 / psy=1 / psy_rd=0.95:0.07 / mixed_ref=1 / me_range=48 / chroma_me=1 / trellis=2 / 8x8dct=1 / cqm=0 / deadzone=21,11 / fast_pskip=1 / chroma_qp_offset=-3 / threads=6 / lookahead_threads=1 / sliced_threads=0 / nr=0 / decimate=1 / interlaced=0 / bluray_compat=0 / constrained_intra=0 / bframes=11 / b_pyramid=2 / b_adapt=2 / b_bias=0 / direct=3 / weightb=1 / open_gop=0 / weightp=2 / keyint=240 / keyint_min=23 / scenecut=40 / intra_refresh=0 / rc_lookahead=40 / rc=2pass / mbtree=0 / bitrate=1937 / ratetol=1.0 / qcomp=0.60 / qpmin=0 / qpmax=69 / qpstep=4 / cplxblur=20.0 / qblur=0.5 / vbv_maxrate=50000 / vbv_bufsize=62500 / nal_hrd=none / filler=0 / ip_ratio=1.40 / pb_ratio=1.30 / aq=1:1.00
Язык : English
Default : Да
Forced : Нет
Аудио #1
Идентификатор : 2
Формат : AC-3
Формат/Информация : Audio Coding 3
Расширение режима : CM (complete main)
Параметр Endianness формата : Big
Идентификатор кодека : A_AC3
Продолжительность : 1 ч. 28 м.
Вид битрейта : Постоянный
Битрейт : 384 Кбит/сек
Каналы : 6 каналов
Расположение каналов : Front: L C R, Side: L R, LFE
Частота : 48,0 КГц
Частота кадров : 31,250 кадров/сек (1536 spf)
Битовая глубина : 16 бит
Метод сжатия : С потерями
Размер потока : 244 Мбайт (14%)
Заголовок : DUB [iTunes]
Язык : Russian
Default : Да
Forced : Нет
Аудио #2
Идентификатор : 3
Формат : AC-3
Формат/Информация : Audio Coding 3
Расширение режима : CM (complete main)
Параметр Endianness формата : Big
Идентификатор кодека : A_AC3
Продолжительность : 1 ч. 28 м.
Вид битрейта : Постоянный
Битрейт : 448 Кбит/сек
Каналы : 6 каналов
Расположение каналов : Front: L C R, Side: L R, LFE
Частота : 48,0 КГц
Частота кадров : 31,250 кадров/сек (1536 spf)
Битовая глубина : 16 бит
Метод сжатия : С потерями
Размер потока : 285 Мбайт (16%)
Заголовок : [Original]
Язык : English
Default : Нет
Forced : Нет
Текст #1
Идентификатор : 4
Формат : UTF-8
Идентификатор кодека : S_TEXT/UTF8
Идентификатор кодека/Информация : UTF-8 Plain Text
Продолжительность : 1 ч. 23 м.
Битрейт : 31 бит/сек
Count of elements : 699
Размер потока : 19,2 Кбайт (0%)
Заголовок : Full
Язык : English
Default : Нет
Forced : Нет
Текст #2
Идентификатор : 5
Формат : UTF-8
Идентификатор кодека : S_TEXT/UTF8
Идентификатор кодека/Информация : UTF-8 Plain Text
Продолжительность : 1 ч. 23 м.
Битрейт : 34 бит/сек
Count of elements : 780
Размер потока : 21,3 Кбайт (0%)
Заголовок : SDH
Язык : English
Default : Нет
Forced : Нет
Меню
00:00:00.000 : en:Chapter 01
00:07:33.202 : en:Chapter 02
00:15:37.770 : en:Chapter 03
00:23:28.115 : en:Chapter 04
00:31:16.332 : en:Chapter 05
00:37:46.138 : en:Chapter 06
00:45:19.091 : en:Chapter 07
00:52:51.001 : en:Chapter 08
01:02:38.838 : en:Chapter 09
01:06:23.229 : en:Chapter 10
01:14:22.082 : en:Chapter 11
01:23:19.411 : en:Chapter 12
[Profile] [PM]
Display posts:    
Reply to topic

Current time is: 18-Oct 22:49

All times are UTC + 3



You cannot post new topics in this forum
You cannot reply to topics in this forum
You cannot edit your posts in this forum
You cannot delete your posts in this forum
You cannot vote in polls in this forum
You cannot attach files in this forum
You cannot download files in this forum