Школа / The School (2018) BDRip 1080p | iTunes

Reply to topic
 
Author Message

Monk ®

Gender: Male

Longevity: 10 months 4 days

Posts: 8711

Location: Казань

Post 22-Nov-2018 22:25

[Quote]

Школа / The School Год выпуска: 2018
Жанр: Ужасы, триллер
Выпущено: Австралия, Bronte Pictures, Head Gear Films
Режиссер: Сторм Эшвуд
В ролях: Меган Друри, Милли Олкок, Николас Хоуп, Тексас Уоттерстон, Уилл МакДональд, Джек Равалд, Алексиа Сантосуссо, Хони Поа, Сэсси Соупидис, Джаспер Ллойд, Тереза МакКарти, Кристиан Уиллис, Шерил Крэйг, Шанель Мюллер, Айви Ли, Леа Эшвуд, Арна Роджерс, Ванесса Роджерс
О фильме: Доктор Эми Винтеркрейг на протяжении двух лет тщетно мечтает о том, чтобы ее сын вышел из комы. Внезапно очутившись в пространстве между пространствами, где обитают души не нашедших покоя детей, пытаясь совладать с потоком мыслей и страхом сделать что-то не так, Эми должна пройтись по месту, которое некогда было школой и среди бесконечной вереницы коридоров, лестниц и кабинетов отыскать душу своего собственного ребенка. Однако, чтобы добиться желаемого, женщине необходимо проявить сильную волю и смекалку, так как на ее пути оказывается слишком много врагов, которые не спешат помогать ей в поисках сына. И если совершить хотя бы одну ошибку, то можно остаться в школе гораздо дольше предполагаемого срока, или не выбраться из нее вообще.

Качество: BDRip 1080p
Видео: MPEG-4 AVC, 10336 Кбит/с, 1920x804, 23.976 кадр/с
Аудио: Русский (AC3, 6 ch, 384 Кбит/с), английский (DTS, 6 ch, 1344 Кбит/с)
Продолжительность: 01:28:47
Перевод: Дублированный [iTunes]
Субтитры: Английские, испанские, немецкие, португальские

Скриншоты



MediaInfo

frame I:922 Avg QP:10.72 size:160750
frame P:25904 Avg QP:11.93 size: 88633
frame B:100898 Avg QP:13.48 size: 43992
consecutive B-frames: 1.6% 3.0% 7.4% 8.7% 10.7% 59.9% 3.4% 1.4% 1.9% 1.9%
mb I I16..4: 7.0% 76.8% 16.2%
mb P I16..4: 2.6% 26.3% 3.7% P16..4: 19.9% 27.0% 10.2% 2.7% 0.1% skip: 7.5%
mb B I16..4: 1.1% 5.3% 0.8% B16..8: 36.0% 31.1% 6.8% direct: 6.1% skip:12.8% L0:46.1% L1:38.7% BI:15.2%
ref P L0: 56.2% 6.9% 23.4% 12.7% 0.8% 0.0%
ref B L0: 85.6% 11.7% 2.6%
ref B L1: 93.2% 6.8%
encoded 127724 frames, 4.11 fps, 10336.22 kb/s
Общее
Уникальный идентификатор : 173974064218036395174489549845910060052 (0x82E22F9C8B571E782B56E71C3428FC14)
Полное имя : D:\The.School.2018.BDRip.1080p-ylnian.mkv
Формат : Matroska
Версия формата : Version 4
Размер файла : 7,48 Гбайт
Продолжительность : 1 ч. 28 м.
Общий поток : 12,1 Мбит/сек
Название фильма : The.School.2018.BDRip.1080p-ylnian
Дата кодирования : UTC 2018-11-23 04:15:04
Программа кодирования : mkvmerge v28.2.0 ('The Awakening') 64-bit
Библиотека кодирования : libebml v1.3.6 + libmatroska v1.4.9
Видео
Идентификатор : 1
Формат : AVC
Формат/Информация : Advanced Video Codec
Профиль формата : High@L4.1
Настройки формата : CABAC / 4 Ref Frames
Параметр CABAC формата : Да
Параметр RefFrames формата : 4 кадра
Идентификатор кодека : V_MPEG4/ISO/AVC
Продолжительность : 1 ч. 28 м.
Битрейт : 10,3 Мбит/сек
Ширина : 1920 пикселей
Высота : 804 пикселя
Соотношение сторон : 2,40:1
Режим частоты кадров : Постоянный
Частота кадров : 23,976 (24000/1001) кадра/сек
Цветовое пространство : YUV
Субдискретизация насыщенности : 4:2:0
Битовая глубина : 8 бит
Тип развёртки : Прогрессивная
Бит/(Пиксели*Кадры) : 0.279
Размер потока : 6,41 Гбайт (86%)
Заголовок : The.School.2018.BDRip.1080p-ylnian
Библиотека кодирования : x264 core 155 r2901 7d0ff22
Настройки программы : cabac=1 / ref=4 / deblock=1:-3:-3 / analyse=0x3:0x133 / me=umh / subme=11 / psy=1 / psy_rd=1.05:0.00 / mixed_ref=1 / me_range=64 / chroma_me=1 / trellis=2 / 8x8dct=1 / cqm=0 / deadzone=21,11 / fast_pskip=0 / chroma_qp_offset=-4 / threads=12 / lookahead_threads=2 / sliced_threads=0 / nr=0 / decimate=1 / interlaced=0 / bluray_compat=0 / constrained_intra=0 / bframes=9 / b_pyramid=2 / b_adapt=2 / b_bias=0 / direct=2 / weightb=1 / open_gop=0 / weightp=2 / keyint=250 / keyint_min=23 / scenecut=40 / intra_refresh=0 / rc_lookahead=250 / rc=crf / mbtree=0 / crf=15.0 / qcomp=0.80 / qpmin=0 / qpmax=69 / qpstep=4 / vbv_maxrate=62500 / vbv_bufsize=78125 / crf_max=0.0 / nal_hrd=none / filler=0 / ip_ratio=1.30 / pb_ratio=1.20 / aq=2:0.90
Язык : English
Default : Да
Forced : Да
Аудио #1
Идентификатор : 2
Формат : AC-3
Формат/Информация : Audio Coding 3
Коммерческое название : Dolby Digital
Идентификатор кодека : A_AC3
Продолжительность : 1 ч. 28 м.
Вид битрейта : Постоянный
Битрейт : 384 Кбит/сек
Каналы : 6 каналов
Channel layout : L R C LFE Ls Rs
Частота : 48,0 КГц
Частота кадров : 31,250 кадров/сек (1536 SPF)
Битовая глубина : 16 бит
Метод сжатия : С потерями
Размер потока : 244 Мбайт (3%)
Заголовок : DUB (iTunes)
Язык : Russian
ServiceKind/String : Complete Main
Default : Да
Forced : Да
Аудио #2
Идентификатор : 3
Формат : DTS
Формат/Информация : Digital Theater Systems
Идентификатор кодека : A_DTS
Продолжительность : 1 ч. 28 м.
Вид битрейта : Постоянный
Битрейт : 1344 Кбит/сек
Каналы : 6 каналов
Channel layout : C L R Ls Rs LFE
Частота : 48,0 КГц
Частота кадров : 93,750 кадра/сек (512 SPF)
Битовая глубина : 16 бит
Метод сжатия : С потерями
Размер потока : 854 Мбайт (11%)
Заголовок : DTS 5.1 1344 kbps
Язык : English
Default : Нет
Forced : Нет
Текст #1
Идентификатор : 4
Формат : UTF-8
Идентификатор кодека : S_TEXT/UTF8
Идентификатор кодека/Информация : UTF-8 Plain Text
Продолжительность : 1 ч. 23 м.
Битрейт : 31 бит/сек
ElementCount : 699
Размер потока : 19,2 Кбайт (0%)
Язык : English
Default : Нет
Forced : Нет
Текст #2
Идентификатор : 5
Формат : UTF-8
Идентификатор кодека : S_TEXT/UTF8
Идентификатор кодека/Информация : UTF-8 Plain Text
Продолжительность : 1 ч. 27 м.
Битрейт : 37 бит/сек
ElementCount : 791
Размер потока : 24,0 Кбайт (0%)
Язык : German
Default : Нет
Forced : Нет
Текст #3
Идентификатор : 6
Формат : UTF-8
Идентификатор кодека : S_TEXT/UTF8
Идентификатор кодека/Информация : UTF-8 Plain Text
Продолжительность : 1 ч. 22 м.
Битрейт : 34 бит/сек
ElementCount : 686
Размер потока : 20,7 Кбайт (0%)
Язык : Spanish
Default : Нет
Forced : Нет
Текст #4
Идентификатор : 7
Формат : UTF-8
Идентификатор кодека : S_TEXT/UTF8
Идентификатор кодека/Информация : UTF-8 Plain Text
Продолжительность : 1 ч. 23 м.
Битрейт : 34 бит/сек
ElementCount : 696
Размер потока : 21,4 Кбайт (0%)
Язык : Portuguese
Default : Нет
Forced : Нет
Меню
00:00:00.000 : en:00:00:00.000
00:07:32.952 : en:00:07:32.952
00:15:37.770 : en:00:15:37.770
00:23:28.240 : en:00:23:28.240
00:31:16.208 : en:00:31:16.208
00:37:46.347 : en:00:37:46.347
00:45:19.091 : en:00:45:19.091
00:52:51.001 : en:00:52:51.001
01:02:38.463 : en:01:02:38.463
01:06:23.229 : en:01:06:23.229
01:14:21.666 : en:01:14:21.666
01:23:19.620 : en:01:23:19.620
[Profile] [PM]
Display posts:    
Reply to topic

Current time is: 18-Sep 21:39

All times are UTC + 3



You cannot post new topics in this forum
You cannot reply to topics in this forum
You cannot edit your posts in this forum
You cannot delete your posts in this forum
You cannot vote in polls in this forum
You cannot attach files in this forum
You cannot download files in this forum