Школа / The School (2018) BDRip | iTunes

Reply to topic
 
Author Message

Monk ®

Gender: Male

Longevity: 1 year

Posts: 9115

Location: Казань

Post 22-Nov-2018 22:22

[Quote]

Школа / The School Год выпуска: 2018
Жанр: Ужасы, триллер
Выпущено: Австралия, Bronte Pictures, Head Gear Films
Режиссер: Сторм Эшвуд
В ролях: Меган Друри, Милли Олкок, Николас Хоуп, Тексас Уоттерстон, Уилл МакДональд, Джек Равалд, Алексиа Сантосуссо, Хони Поа, Сэсси Соупидис, Джаспер Ллойд, Тереза МакКарти, Кристиан Уиллис, Шерил Крэйг, Шанель Мюллер, Айви Ли, Леа Эшвуд, Арна Роджерс, Ванесса Роджерс
О фильме: Доктор Эми Винтеркрейг на протяжении двух лет тщетно мечтает о том, чтобы ее сын вышел из комы. Внезапно очутившись в пространстве между пространствами, где обитают души не нашедших покоя детей, пытаясь совладать с потоком мыслей и страхом сделать что-то не так, Эми должна пройтись по месту, которое некогда было школой и среди бесконечной вереницы коридоров, лестниц и кабинетов отыскать душу своего собственного ребенка. Однако, чтобы добиться желаемого, женщине необходимо проявить сильную волю и смекалку, так как на ее пути оказывается слишком много врагов, которые не спешат помогать ей в поисках сына. И если совершить хотя бы одну ошибку, то можно остаться в школе гораздо дольше предполагаемого срока, или не выбраться из нее вообще.

Качество: BDRip
Видео: XviD, 1704 Кбит/с, 720x304, 23.976 кадр/с
Аудио: Русский (AC3, 6 ch, 384 Кбит/с), английский (AC3, 2 ch, 224 Кбит/с)
Продолжительность: 01:28:47
Перевод: Дублированный [iTunes]

Скриншоты



MediaInfo

Общее
Полное имя : D:\The.School.2018.BDRip-ylnian.avi
Формат : AVI
Формат/Информация : Audio Video Interleave
Размер файла : 1,44 Гбайт
Продолжительность : 1 ч. 28 м.
Общий поток : 2326 Кбит/сек
Программа кодирования : VirtualDubMod 1.5.10.3 | www.virtualdub-fr.org || (build 2550/release)
Библиотека кодирования : VirtualDubMod build 2550/release
Видео
Идентификатор : 0
Формат : MPEG-4 Visual
Профиль формата : Advanced Simple@L5
Настройки формата : BVOP1 / Custom Matrix
Параметр BVOP формата : 1
Параметр QPel формата : Нет
Параметр GMC формата : Без точки перехода
Параметр матрицы формата : Выборочная
Идентификатор кодека : XVID
Идентификатор кодека/Подсказка : XviD
Продолжительность : 1 ч. 28 м.
Битрейт : 1704 Кбит/сек
Ширина : 720 пикселей
Высота : 304 пикселя
Соотношение сторон : 2,35:1
Частота кадров : 23,976 (24000/1001) кадра/сек
Цветовое пространство : YUV
Субдискретизация насыщенности : 4:2:0
Битовая глубина : 8 бит
Тип развёртки : Прогрессивная
Метод сжатия : С потерями
Бит/(Пиксели*Кадры) : 0.325
Размер потока : 1,06 Гбайт (73%)
Библиотека кодирования : XviD 67
Аудио #1
Идентификатор : 1
Формат : AC-3
Формат/Информация : Audio Coding 3
Коммерческое название : Dolby Digital
Идентификатор кодека : 2000
Продолжительность : 1 ч. 28 м.
Вид битрейта : Постоянный
Битрейт : 384 Кбит/сек
Каналы : 6 каналов
Channel layout : L R C LFE Ls Rs
Частота : 48,0 КГц
Частота кадров : 31,250 кадров/сек (1536 SPF)
Битовая глубина : 16 бит
Метод сжатия : С потерями
Размер потока : 244 Мбайт (17%)
Выравнивание : Разделение по промежуткам
Продолжительность промежутка : 42 мс. (1,00 видеокадр)
Время предзагрузки промежутка : 500 мс.
Заголовок : RUS - iTunes
ServiceKind/String : Complete Main
Аудио #2
Идентификатор : 2
Формат : AC-3
Формат/Информация : Audio Coding 3
Коммерческое название : Dolby Digital
Идентификатор кодека : 2000
Продолжительность : 1 ч. 28 м.
Вид битрейта : Постоянный
Битрейт : 224 Кбит/сек
Каналы : 2 канала
Channel layout : L R
Частота : 48,0 КГц
Частота кадров : 31,250 кадров/сек (1536 SPF)
Битовая глубина : 16 бит
Метод сжатия : С потерями
Размер потока : 142 Мбайт (10%)
Выравнивание : Разделение по промежуткам
Продолжительность промежутка : 42 мс. (1,00 видеокадр)
Время предзагрузки промежутка : 500 мс.
Заголовок : ENG
ServiceKind/String : Complete Main
[Profile] [PM]
Display posts:    
Reply to topic

Current time is: 22-Nov 11:50

All times are UTC + 3



You cannot post new topics in this forum
You cannot reply to topics in this forum
You cannot edit your posts in this forum
You cannot delete your posts in this forum
You cannot vote in polls in this forum
You cannot attach files in this forum
You cannot download files in this forum