Убрать из друзей: Даркнет / Unfriended: Dark Web (2018) BDRip AVC

Reply to topic
 
Author Message

Monk ®

Gender: Male

Longevity: 2 years 11 months

Posts: 14033

Location: Казань

Post 03-Dec-2018 10:57

[Quote]

Убрать из друзей: Даркнет / Unfriended: Dark Web Год выпуска: 2018
Жанр: Ужасы
Выпущено: США, Bazelevs Production, Blumhouse Productions, Universal Pictures
Режиссер: Стивен Саско
В ролях: Бетти Гэбриел, Ребекка Риттенхаус, Колин Вуделл, Челси Элден, Эндрю Лииз, Алекса Мансур, Стефани Ногерас, Дуглас Тейт, Коннор Дель Рио, Савира Виндьяни
О фильме: Матиас приобрел ноутбук и обнаружил там любопытные скрытые файлы. Во время коллективного видеочата парень спешит поделиться новостью с друзьями, когда к их разговору присоединяется нечто злое и очень агрессивное.

Качество: BDRip AVC
Видео: MPEG-4 AVC, 2158 Кбит/с, 1024x576
Аудио: Русский (AC3, 2 ch, 192 Кбит/с), английский (AC3, 6 ch, 448 Кбит/c)
Продолжительность: 01:32:30
Перевод: Профессиональный многоголосый [HDRezka Studio]
Субтитры: Английские

Скриншоты



MediaInfo

Общее
Уникальный идентификатор : 36254497709761330607572857668488532347 (0x1B465CBE1B42B765DB6D5512EE7A117B)
Полное имя : F:\OlLanDGroup\Unfriended.Dark.Web.2018.BDRip(AVC).OlLanDGroup.mkv
Формат : Matroska
Версия формата : Version 4 / Version 2
Размер файла : 1,81 Гбайт
Продолжительность : 1 ч. 32 м.
Общий поток : 2799 Кбит/сек
Название фильма : Unfriended.Dark.Web.2018 #TorpedoUK#
Дата кодирования : UTC 2018-12-02 15:48:07
Программа кодирования : mkvmerge v25.0.0 ('Prog Noir') 64-bit
Библиотека кодирования : libebml v1.3.6 + libmatroska v1.4.9
Видео
Идентификатор : 1
Формат : AVC
Формат/Информация : Advanced Video Codec
Профиль формата : High@L4.1
Параметр CABAC формата : Да
Параметр ReFrames формата : 10 кадров
Идентификатор кодека : V_MPEG4/ISO/AVC
Продолжительность : 1 ч. 32 м.
Битрейт : 2158 Кбит/сек
Ширина : 1024 пикселя
Высота : 576 пикселей
Соотношение сторон : 16:9
Режим частоты кадров : Постоянный
Частота кадров : 23,976 (24000/1001) кадра/сек
Цветовое пространство : YUV
Субдискретизация насыщенности : 4:2:0
Битовая глубина : 8 бит
Тип развёртки : Прогрессивная
Бит/(Пиксели*Кадры) : 0.153
Размер потока : 1,39 Гбайт (77%)
Библиотека кодирования : x264 core 146 r2538 121396c
Настройки программы : cabac=1 / ref=10 / deblock=1:-3:-3 / analyse=0x3:0x113 / me=umh / subme=11 / psy=1 / psy_rd=1.00:0.03 / mixed_ref=1 / me_range=48 / chroma_me=1 / trellis=2 / 8x8dct=1 / cqm=0 / deadzone=21,11 / fast_pskip=1 / chroma_qp_offset=-3 / threads=6 / lookahead_threads=1 / sliced_threads=0 / nr=0 / decimate=1 / interlaced=0 / bluray_compat=0 / constrained_intra=0 / bframes=11 / b_pyramid=2 / b_adapt=2 / b_bias=0 / direct=3 / weightb=1 / open_gop=0 / weightp=2 / keyint=240 / keyint_min=23 / scenecut=40 / intra_refresh=0 / rc_lookahead=40 / rc=2pass / mbtree=0 / bitrate=2158 / ratetol=1.0 / qcomp=0.60 / qpmin=0 / qpmax=69 / qpstep=4 / cplxblur=20.0 / qblur=0.5 / vbv_maxrate=50000 / vbv_bufsize=62500 / nal_hrd=none / filler=0 / ip_ratio=1.40 / pb_ratio=1.30 / aq=1:1.00
Язык : English
Default : Да
Forced : Нет
Аудио #1
Идентификатор : 2
Формат : AC-3
Формат/Информация : Audio Coding 3
Расширение режима : CM (complete main)
Параметр Endianness формата : Big
Идентификатор кодека : A_AC3
Продолжительность : 1 ч. 32 м.
Вид битрейта : Постоянный
Битрейт : 192 Кбит/сек
Каналы : 2 канала
Расположение каналов : Front: L R
Частота : 48,0 КГц
Частота кадров : 31,250 кадров/сек (1536 spf)
Битовая глубина : 16 бит
Метод сжатия : С потерями
Размер потока : 127 Мбайт (7%)
Заголовок : MVO [HDRezka Studio]
Язык : Russian
Default : Да
Forced : Нет
Аудио #2
Идентификатор : 3
Формат : AC-3
Формат/Информация : Audio Coding 3
Расширение режима : CM (complete main)
Параметр Endianness формата : Big
Идентификатор кодека : A_AC3
Продолжительность : 1 ч. 32 м.
Вид битрейта : Постоянный
Битрейт : 448 Кбит/сек
Каналы : 6 каналов
Расположение каналов : Front: L C R, Side: L R, LFE
Частота : 48,0 КГц
Частота кадров : 31,250 кадров/сек (1536 spf)
Битовая глубина : 16 бит
Метод сжатия : С потерями
Размер потока : 296 Мбайт (16%)
Заголовок : [Original]
Язык : English
Default : Нет
Forced : Нет
Текст #1
Идентификатор : 4
Формат : UTF-8
Идентификатор кодека : S_TEXT/UTF8
Идентификатор кодека/Информация : UTF-8 Plain Text
Продолжительность : 1 ч. 24 м.
Битрейт : 63 бит/сек
Count of elements : 1138
Размер потока : 39,3 Кбайт (0%)
Заголовок : Full
Язык : English
Default : Нет
Forced : Нет
Текст #2
Идентификатор : 5
Формат : UTF-8
Идентификатор кодека : S_TEXT/UTF8
Идентификатор кодека/Информация : UTF-8 Plain Text
Продолжительность : 1 ч. 28 м.
Битрейт : 71 бит/сек
Count of elements : 1462
Размер потока : 46,2 Кбайт (0%)
Заголовок : SDH
Язык : English
Default : Нет
Forced : Нет
Меню
00:00:00.000 : en:Chapter 1
00:05:06.306 : en:Chapter 2
00:11:11.588 : en:Chapter 3
00:16:17.268 : en:Chapter 4
00:22:41.652 : en:Chapter 5
00:27:19.555 : en:Chapter 6
00:31:02.194 : en:Chapter 7
00:35:30.670 : en:Chapter 8
00:39:35.957 : en:Chapter 9
00:45:10.917 : en:Chapter 10
00:50:26.523 : en:Chapter 11
00:55:01.965 : en:Chapter 12
00:57:50.967 : en:Chapter 13
01:01:02.742 : en:Chapter 14
01:05:25.672 : en:Chapter 15
01:09:21.574 : en:Chapter 16
01:12:11.536 : en:Chapter 17
01:19:58.335 : en:Chapter 18
01:25:13.984 : en:Chapter 19
01:29:17.644 : en:Chapter 20
[Profile] [PM]
Display posts:    
Reply to topic

Current time is: 22-Oct 10:51

All times are UTC + 3



You cannot post new topics in this forum
You cannot reply to topics in this forum
You cannot edit your posts in this forum
You cannot delete your posts in this forum
You cannot vote in polls in this forum
You cannot attach files in this forum
You cannot download files in this forum