Убрать из друзей: Даркнет / Unfriended: Dark Web (2018) BDRip 1080p

Reply to topic
 
Author Message

Monk ®

Gender: Male

Longevity: 2 years 2 months

Posts: 14033

Location: Казань

Post 03-Dec-2018 10:58

[Quote]

Убрать из друзей: Даркнет / Unfriended: Dark Web Год выпуска: 2018
Жанр: Ужасы
Выпущено: США, Bazelevs Production, Blumhouse Productions, Universal Pictures
Режиссер: Стивен Саско
В ролях: Бетти Гэбриел, Ребекка Риттенхаус, Колин Вуделл, Челси Элден, Эндрю Лииз, Алекса Мансур, Стефани Ногерас, Дуглас Тейт, Коннор Дель Рио, Савира Виндьяни
О фильме: Матиас приобрел ноутбук и обнаружил там любопытные скрытые файлы. Во время коллективного видеочата парень спешит поделиться новостью с друзьями, когда к их разговору присоединяется нечто злое и очень агрессивное.

Качество: BDRip 1080p
Видео: MPEG-4 AVC, 10.8 Мбит/с, 1920x1080
Аудио: Русский (AC3, 2 ch, 192 Кбит/с), английский (DTS, 6 ch, 1510 Кбит/c)
Продолжительность: 01:32:30
Перевод: Профессиональный многоголосый [HDRezka Studio]
Субтитры: Английские

Скриншоты



MediaInfo

Общее
Уникальный идентификатор : 236026182259109972411422679988412240498 (0xB190FD3CAF3B23ED32DCCC068D065272)
Полное имя : F:\OlLanDGroup\Unfriended.Dark.Web.2018.BDRip(1080p).OlLanDGroup.mkv
Формат : Matroska
Версия формата : Version 4 / Version 2
Размер файла : 8,08 Гбайт
Продолжительность : 1 ч. 32 м.
Общий поток : 12,5 Мбит/сек
Дата кодирования : UTC 2018-12-01 18:02:22
Программа кодирования : mkvmerge v25.0.0 ('Prog Noir') 64-bit
Библиотека кодирования : libebml v1.3.6 + libmatroska v1.4.9
Видео
Идентификатор : 1
Формат : AVC
Формат/Информация : Advanced Video Codec
Профиль формата : High@L4.1
Параметр CABAC формата : Да
Параметр ReFrames формата : 4 кадра
Идентификатор кодека : V_MPEG4/ISO/AVC
Продолжительность : 1 ч. 32 м.
Битрейт : 10,8 Мбит/сек
Ширина : 1920 пикселей
Высота : 1080 пикселей
Соотношение сторон : 16:9
Режим частоты кадров : Постоянный
Частота кадров : 23,976 (24000/1001) кадра/сек
Цветовое пространство : YUV
Субдискретизация насыщенности : 4:2:0
Битовая глубина : 8 бит
Тип развёртки : Прогрессивная
Бит/(Пиксели*Кадры) : 0.217
Размер потока : 6,98 Гбайт (86%)
Библиотека кодирования : x264 core 157 r2935 545de2f
Настройки программы : cabac=1 / ref=4 / deblock=1:-3:-3 / analyse=0x3:0x133 / me=umh / subme=11 / psy=1 / psy_rd=1.03:0.00 / mixed_ref=1 / me_range=64 / chroma_me=1 / trellis=2 / 8x8dct=1 / cqm=0 / deadzone=21,11 / fast_pskip=0 / chroma_qp_offset=-2 / threads=34 / lookahead_threads=8 / sliced_threads=0 / nr=0 / decimate=0 / interlaced=0 / bluray_compat=0 / constrained_intra=0 / bframes=12 / b_pyramid=2 / b_adapt=2 / b_bias=0 / direct=3 / weightb=1 / open_gop=0 / weightp=2 / keyint=250 / keyint_min=24 / scenecut=40 / intra_refresh=0 / rc_lookahead=250 / rc=crf / mbtree=0 / crf=17.0 / qcomp=0.70 / qpmin=0 / qpmax=69 / qpstep=4 / vbv_maxrate=62500 / vbv_bufsize=78125 / crf_max=0.0 / nal_hrd=none / filler=0 / ip_ratio=1.30 / pb_ratio=1.20 / aq=3:0.84
Язык : English
Default : Да
Forced : Нет
Цветовой диапазон : Limited
Основные цвета : BT.709
Коэффициенты матрицы : BT.709
Аудио #1
Идентификатор : 2
Формат : AC-3
Формат/Информация : Audio Coding 3
Расширение режима : CM (complete main)
Параметр Endianness формата : Big
Идентификатор кодека : A_AC3
Продолжительность : 1 ч. 32 м.
Вид битрейта : Постоянный
Битрейт : 192 Кбит/сек
Каналы : 2 канала
Расположение каналов : Front: L R
Частота : 48,0 КГц
Частота кадров : 31,250 кадров/сек (1536 spf)
Битовая глубина : 16 бит
Метод сжатия : С потерями
Размер потока : 127 Мбайт (2%)
Заголовок : MVO [HDRezka Studio]
Язык : Russian
Default : Да
Forced : Нет
Аудио #2
Идентификатор : 3
Формат : DTS
Формат/Информация : Digital Theater Systems
Режим : 16
Параметр Endianness формата : Big
Идентификатор кодека : A_DTS
Продолжительность : 1 ч. 32 м.
Вид битрейта : Постоянный
Битрейт : 1509 Кбит/сек
Каналы : 6 каналов
Расположение каналов : Front: L C R, Side: L R, LFE
Частота : 48,0 КГц
Частота кадров : 93,750 кадра/сек (512 spf)
Битовая глубина : 24 бит
Метод сжатия : С потерями
Размер потока : 998 Мбайт (12%)
Заголовок : [Original]
Язык : English
Default : Нет
Forced : Нет
Текст #1
Идентификатор : 4
Формат : UTF-8
Идентификатор кодека : S_TEXT/UTF8
Идентификатор кодека/Информация : UTF-8 Plain Text
Продолжительность : 1 ч. 24 м.
Битрейт : 63 бит/сек
Count of elements : 1138
Размер потока : 39,3 Кбайт (0%)
Заголовок : Full
Язык : English
Default : Нет
Forced : Нет
Текст #2
Идентификатор : 5
Формат : UTF-8
Идентификатор кодека : S_TEXT/UTF8
Идентификатор кодека/Информация : UTF-8 Plain Text
Продолжительность : 1 ч. 28 м.
Битрейт : 71 бит/сек
Count of elements : 1462
Размер потока : 46,2 Кбайт (0%)
Заголовок : SDH
Язык : English
Default : Нет
Forced : Нет
Меню
00:00:00.000 : en:Chapter 1
00:05:06.306 : en:Chapter 2
00:11:11.588 : en:Chapter 3
00:16:17.268 : en:Chapter 4
00:22:41.652 : en:Chapter 5
00:27:19.555 : en:Chapter 6
00:31:02.194 : en:Chapter 7
00:35:30.670 : en:Chapter 8
00:39:35.957 : en:Chapter 9
00:45:10.917 : en:Chapter 10
00:50:26.523 : en:Chapter 11
00:55:01.965 : en:Chapter 12
00:57:50.967 : en:Chapter 13
01:01:02.742 : en:Chapter 14
01:05:25.672 : en:Chapter 15
01:09:21.574 : en:Chapter 16
01:12:11.536 : en:Chapter 17
01:19:58.335 : en:Chapter 18
01:25:13.984 : en:Chapter 19
01:29:17.644 : en:Chapter 20
[Profile] [PM]
Display posts:    
Reply to topic

Current time is: 25-Jan 22:54

All times are UTC + 3



You cannot post new topics in this forum
You cannot reply to topics in this forum
You cannot edit your posts in this forum
You cannot delete your posts in this forum
You cannot vote in polls in this forum
You cannot attach files in this forum
You cannot download files in this forum