Убрать из друзей: Даркнет / Unfriended: Dark Web (2018) BDRip 720p

Reply to topic
 
Author Message

Monk ®

Gender: Male

Longevity: 2 years 11 months

Posts: 14033

Location: Казань

Post 03-Dec-2018 12:42

[Quote]

Убрать из друзей: Даркнет / Unfriended: Dark Web Год выпуска: 2018
Жанр: Ужасы
Выпущено: США, Bazelevs Production, Blumhouse Productions, Universal Pictures
Режиссер: Стивен Саско
В ролях: Бетти Гэбриел, Ребекка Риттенхаус, Колин Вуделл, Челси Элден, Эндрю Лииз, Алекса Мансур, Стефани Ногерас, Дуглас Тейт, Коннор Дель Рио, Савира Виндьяни
О фильме: Матиас приобрел ноутбук и обнаружил там любопытные скрытые файлы. Во время коллективного видеочата парень спешит поделиться новостью с друзьями, когда к их разговору присоединяется нечто злое и очень агрессивное.

Качество: BDRip 720p
Видео: MPEG-4 AVC, 8500 Kбит/с, 1280x720
Аудио: Русский (AC3, 2 ch, 192 Кбит/с)
Продолжительность: 01:32:30
Перевод: Профессиональный многоголосый [HDRezka Studio]

Скриншоты


MediaInfo

Общее
Уникальный идентификатор : 245181556268816014758350097836964532305 (0xB8744006BF57DA84BCBD0B3D97BF5051)
Полное имя : D:\Убрать из друзей Даркнет.2018.BDRip (720p).mkv
Формат : Matroska
Версия формата : Version 2
Размер файла : 5,60 Гбайт
Продолжительность : 1 ч. 32 м.
Общий поток : 8672 Кбит/сек
Дата кодирования : UTC 2018-12-03 04:37:14
Программа кодирования : mkvmerge v7.8.0 ('River Man') 32bit built on Apr 3 2015 12:11:22
Библиотека кодирования : libebml v1.3.1 + libmatroska v1.4.2
Видео
Идентификатор : 1
Формат : AVC
Формат/Информация : Advanced Video Codec
Профиль формата : High@L4.1
Настройки формата : CABAC / 9 Ref Frames
Параметр CABAC формата : Да
Параметр RefFrames формата : 9 кадров
Идентификатор кодека : V_MPEG4/ISO/AVC
Продолжительность : 1 ч. 32 м.
Битрейт : 8500 Кбит/сек
Ширина : 1280 пикселей
Высота : 720 пикселей
Соотношение сторон : 16:9
Режим частоты кадров : Постоянный
Частота кадров : 23,976 кадра/сек
Цветовое пространство : YUV
Субдискретизация насыщенности : 4:2:0
Битовая глубина : 8 бит
Тип развёртки : Прогрессивная
Бит/(Пиксели*Кадры) : 0.385
Размер потока : 5,37 Гбайт (96%)
Библиотека кодирования : x264 core 146 r2538 121396c
Настройки программы : cabac=1 / ref=9 / deblock=1:-1:-1 / analyse=0x3:0x111 / me=umh / subme=9 / psy=1 / psy_rd=1.00:0.10 / mixed_ref=1 / me_range=32 / chroma_me=0 / trellis=2 / 8x8dct=1 / cqm=0 / deadzone=21,11 / fast_pskip=0 / chroma_qp_offset=-3 / threads=6 / lookahead_threads=1 / sliced_threads=0 / nr=0 / decimate=0 / interlaced=0 / bluray_compat=0 / constrained_intra=0 / bframes=3 / b_pyramid=2 / b_adapt=2 / b_bias=0 / direct=3 / weightb=1 / open_gop=0 / weightp=2 / keyint=250 / keyint_min=23 / scenecut=40 / intra_refresh=0 / rc_lookahead=50 / rc=2pass / mbtree=1 / bitrate=8500 / ratetol=1.0 / qcomp=0.60 / qpmin=0 / qpmax=69 / qpstep=4 / cplxblur=20.0 / qblur=0.5 / ip_ratio=1.40 / aq=1:1.00
Default : Да
Forced : Нет
Аудио
Идентификатор : 2
Формат : AC-3
Формат/Информация : Audio Coding 3
Коммерческое название : Dolby Digital
Идентификатор кодека : A_AC3
Продолжительность : 1 ч. 32 м.
Вид битрейта : Постоянный
Битрейт : 192 Кбит/сек
Каналы : 2 канала
Channel layout : L R
Частота : 48,0 КГц
Частота кадров : 31,250 кадров/сек (1536 SPF)
Битовая глубина : 16 бит
Метод сжатия : С потерями
Размер потока : 127 Мбайт (2%)
ServiceKind/String : Complete Main
Default : Да
Forced : Нет
[Profile] [PM]
Display posts:    
Reply to topic

Current time is: 19-Oct 04:47

All times are UTC + 3



You cannot post new topics in this forum
You cannot reply to topics in this forum
You cannot edit your posts in this forum
You cannot delete your posts in this forum
You cannot vote in polls in this forum
You cannot attach files in this forum
You cannot download files in this forum