Женщины мафии / Kobiety mafii (2018) BDRip 720p

Ответить на тему
 
Автор Сообщение

Monk ®

Пол: Мужской

Стаж: 3 месяца 2 дня

Сообщений: 3233

Откуда: Казань

Создавать темы 19-Ноя-2018 11:07

[Цитировать]

Женщины мафии / Kobiety mafii Год выпуска: 2018
Жанр: Драма, криминал, боевик
Выпущено: Польша, Showmax, Vega Investments
Режиссер: Патрик Вега
В ролях: Агнешка Дыгант, Ольга Болондзь, Катажина Варнке, Александра Поплавска, Богуслав Линда, Пётр Страмовский, Томаш Освециньский, Себастьян Фабияньский, Шимон Радзимерский, Януш Хабёр, Олаф Любашенко, Катажина Цереквицка, Собота, Кароль Бедорф, Филип Гузля, Филип Хайзер, Ярослав Крет, Мажена Рогальска, Мацей Яховский, Кшиштоф Гурецкий, атрык Янас, Ежи Янечек, Ян Козачук, Максимильян Михасюв, Бартломей Моравский, Катажина Новак, Пётр Новак, Славомир Ольшевский, Артур Овчарек
О фильме: В новом фильме Патрика Веги показаны сплетающиеся в одну нить истории нескольких женщин, тем или иным образом причастных к делам польских преступных группировок. "Белу", уволеннную из полиции, приглашают на службу в Агентство Внутренней Безопасности. Она должна пройти специальную подготовку и внедриться в банду международного торговца наркотиками по прозвищу "Падрино" (Крёстный отец). Анка, типичная "блондинка", существовавшая исключительно на деньги мужа-бандита и ни в чём себе не отказывавшая, после его ареста лишается средств на привычную роскошную жизнь. Нянечка Дарья, искренне привязанная к ребёнку Анки, раньше сносившая все придирки и самодурство хозяйки, неожиданно открывает некоторые грани своего характера, о которых раньше и не подозревала. "Секира", изворотливая хищница, вместе с любовником сбегает от мужа, прихватив с собой огромную сумму не своих денег. "Шубка", дочь Падрино, подсаживается на наркотики, а заодно попадает под разработку спецслужб.

Качество: BDRip 720p
Видео: MPEG-4 AVC, 4984 Kбит/с, 1280x542
Аудио: Русский, польский (DTS, 6 ch, 1509 Кбит/с)
Продолжительность: 02:18:00
Перевод: Авторский [Евгений Гаевский]
Субтитры: Русские, английские, польские

Скриншоты


MediaInfo

Формат : Matroska
Версия формата : Version 4 / Version 2
Размер файла : 7,72 Гбайт
Продолжительность : 2 ч. 18 м.
Общий поток : 8007 Кбит/сек
Название фильма : Kobiety.Mafii.2018.BDRemux - Rutracker
Дата кодирования : UTC 2018-07-15 12:45:40
Программа кодирования : mkvmerge v25.0.0 ('Prog Noir') 32-bit
Библиотека кодирования : libebml v1.3.6 + libmatroska v1.4.9
Обложка : Yes
Attachments : cover.jpg
Видео
Идентификатор : 1
Формат : AVC
Формат/Информация : Advanced Video Codec
Профиль формата : High@L4.1
Настройки формата : CABAC / 12 Ref Frames
Параметр CABAC формата : Да
Параметр RefFrames формата : 12 кадров
Идентификатор кодека : V_MPEG4/ISO/AVC
Продолжительность : 2 ч. 18 м.
Битрейт : 4984 Кбит/сек
Ширина : 1280 пикселей
Высота : 542 пикселя
Соотношение сторон : 2,35:1
Режим частоты кадров : Постоянный
Частота кадров : 24,000 кадра/сек
Цветовое пространство : YUV
Субдискретизация насыщенности : 4:2:0
Битовая глубина : 8 бит
Тип развёртки : Прогрессивная
Бит/(Пиксели*Кадры) : 0.299
Размер потока : 4,80 Гбайт (62%)
Заголовок : Kobiety.Mafii.2018.BDRemux - ripped by <<LION1234>>
Библиотека кодирования : x264 core 155 r2901 7d0ff22
Настройки программы : cabac=1 / ref=12 / deblock=1:-3:-3 / analyse=0x3:0x113 / me=umh / subme=10 / psy=1 / psy_rd=0.89:0.02 / mixed_ref=1 / me_range=24 / chroma_me=1 / trellis=2 / 8x8dct=1 / cqm=0 / deadzone=21,11 / fast_pskip=1 / chroma_qp_offset=-3 / threads=6 / lookahead_threads=1 / sliced_threads=0 / nr=0 / decimate=0 / interlaced=0 / bluray_compat=0 / constrained_intra=0 / bframes=11 / b_pyramid=2 / b_adapt=2 / b_bias=0 / direct=1 / weightb=1 / open_gop=0 / weightp=2 / keyint=250 / keyint_min=23 / scenecut=40 / intra_refresh=0 / rc_lookahead=40 / rc=crf / mbtree=0 / crf=15.9 / qcomp=0.64 / qpmin=0 / qpmax=69 / qpstep=4 / vbv_maxrate=62500 / vbv_bufsize=78125 / crf_max=0.0 / nal_hrd=none / filler=0 / ip_ratio=1.40 / pb_ratio=1.30 / aq=2:0.76
Default : Да
Forced : Нет
Цветовой диапазон : Limited
Основные цвета : BT.709
Характеристики трансфера : BT.709
Коэффициенты матрицы : BT.709
Аудио #1
Идентификатор : 2
Формат : DTS
Формат/Информация : Digital Theater Systems
Идентификатор кодека : A_DTS
Продолжительность : 2 ч. 18 м.
Вид битрейта : Постоянный
Битрейт : 1509 Кбит/сек
Каналы : 6 каналов
Расположение каналов : Front: L C R, Side: L R, LFE
Частота : 48,0 КГц
Частота кадров : 93,750 кадра/сек (512 SPF)
Битовая глубина : 24 бит
Метод сжатия : С потерями
Размер потока : 1,45 Гбайт (19%)
Заголовок : русский закадровый Е.Гаевский
Язык : Russian
Default : Да
Forced : Нет
Аудио #2
Идентификатор : 3
Формат : DTS
Формат/Информация : Digital Theater Systems
Идентификатор кодека : A_DTS
Продолжительность : 2 ч. 18 м.
Вид битрейта : Постоянный
Битрейт : 1509 Кбит/сек
Каналы : 6 каналов
Расположение каналов : Front: L C R, Side: L R, LFE
Частота : 48,0 КГц
Частота кадров : 93,750 кадра/сек (512 SPF)
Битовая глубина : 24 бит
Метод сжатия : С потерями
Размер потока : 1,45 Гбайт (19%)
Заголовок : польский оригинал
Язык : Polish
Default : Нет
Forced : Нет
Текст #1
Идентификатор : 4
Формат : UTF-8
Идентификатор кодека : S_TEXT/UTF8
Идентификатор кодека/Информация : UTF-8 Plain Text
Продолжительность : 2 ч. 16 м.
Битрейт : 78 бит/сек
ElementCount : 1241
Размер потока : 78,1 Кбайт (0%)
Заголовок : русские
Язык : Russian
Default : Нет
Forced : Нет
Текст #2
Идентификатор : 5
Формат : UTF-8
Идентификатор кодека : S_TEXT/UTF8
Идентификатор кодека/Информация : UTF-8 Plain Text
Продолжительность : 2 ч. 16 м.
Битрейт : 42 бит/сек
ElementCount : 1558
Размер потока : 42,7 Кбайт (0%)
Заголовок : английские
Язык : English
Default : Нет
Forced : Нет
Текст #3
Идентификатор : 6
Формат : UTF-8
Идентификатор кодека : S_TEXT/UTF8
Идентификатор кодека/Информация : UTF-8 Plain Text
Продолжительность : 2 ч. 4 м.
Битрейт : 1 бит/сек
ElementCount : 62
Размер потока : 1,50 Кбайт (0%)
Заголовок : польские
Язык : Polish
Default : Нет
Forced : Нет
Меню
00:00:00.000 : :Chapter 1
00:08:50.041 : :Chapter 2
00:19:15.416 : :Chapter 3
00:28:05.125 : :Chapter 4
00:39:12.500 : :Chapter 5
00:48:12.541 : :Chapter 6
00:58:56.708 : :Chapter 7
01:08:07.333 : :Chapter 8
01:18:15.666 : :Chapter 9
01:28:36.708 : :Chapter 10
01:44:42.791 : :Chapter 11
01:59:04.750 : :Chapter 12
x264 [info]: profile High, level 4.1
x264 [info]: frame I:1304 Avg QP:14.49 size:113600
x264 [info]: frame P:44434 Avg QP:16.22 size: 51950
x264 [info]: frame B:152982 Avg QP:18.53 size: 17665
x264 [info]: consecutive B-frames: 1.7% 2.8% 8.2% 28.0% 21.0% 27.9% 4.8% 2.6% 1.3% 0.6% 0.6% 0.5%
encoded 198720 frames, 3.09 fps, 4984.49 kb/s
[Профиль] [ЛС]
Показать сообщения:    
Ответить на тему

Текущее время: 17-Фев 11:46

Часовой пояс: UTC + 3



Вы не можете начинать темы
Вы не можете отвечать на сообщения
Вы не можете редактировать свои сообщения
Вы не можете удалять свои сообщения
Вы не можете голосовать в опросах
Вы не можете прикреплять файлы к сообщениям
Вы не можете скачивать файлы