Женщины мафии / Kobiety mafii (2018) BDRip 1080p

Reply to topic
 
Author Message

Monk ®

Gender: Male

Longevity: 1 year

Posts: 9624

Location: Казань

Post 19-Nov-2018 11:09

[Quote]

Женщины мафии / Kobiety mafii Год выпуска: 2018
Жанр: Драма, криминал, боевик
Выпущено: Польша, Showmax, Vega Investments
Режиссер: Патрик Вега
В ролях: Агнешка Дыгант, Ольга Болондзь, Катажина Варнке, Александра Поплавска, Богуслав Линда, Пётр Страмовский, Томаш Освециньский, Себастьян Фабияньский, Шимон Радзимерский, Януш Хабёр, Олаф Любашенко, Катажина Цереквицка, Собота, Кароль Бедорф, Филип Гузля, Филип Хайзер, Ярослав Крет, Мажена Рогальска, Мацей Яховский, Кшиштоф Гурецкий, атрык Янас, Ежи Янечек, Ян Козачук, Максимильян Михасюв, Бартломей Моравский, Катажина Новак, Пётр Новак, Славомир Ольшевский, Артур Овчарек
О фильме: В новом фильме Патрика Веги показаны сплетающиеся в одну нить истории нескольких женщин, тем или иным образом причастных к делам польских преступных группировок. "Белу", уволеннную из полиции, приглашают на службу в Агентство Внутренней Безопасности. Она должна пройти специальную подготовку и внедриться в банду международного торговца наркотиками по прозвищу "Падрино" (Крёстный отец). Анка, типичная "блондинка", существовавшая исключительно на деньги мужа-бандита и ни в чём себе не отказывавшая, после его ареста лишается средств на привычную роскошную жизнь. Нянечка Дарья, искренне привязанная к ребёнку Анки, раньше сносившая все придирки и самодурство хозяйки, неожиданно открывает некоторые грани своего характера, о которых раньше и не подозревала. "Секира", изворотливая хищница, вместе с любовником сбегает от мужа, прихватив с собой огромную сумму не своих денег. "Шубка", дочь Падрино, подсаживается на наркотики, а заодно попадает под разработку спецслужб.

Качество: BDRip 1080p
Видео: MPEG-4 AVC, 8000 Kбит/с, 1920x812
Аудио: Русский (AC3, 6 ch, 640 Кбит/с), польский (DTS, 6 ch, 1509 Кбит/с)
Продолжительность: 02:18:00
Перевод: Авторский [Евгений Гаевский]
Субтитры: Русские, английские

Скриншоты

MediaInfo

x264 [info]: frame I:1259 Avg QP:15.19 size:193608
x264 [info]: frame P:48882 Avg QP:18.05 size: 77298
x264 [info]: frame B:148579 Avg QP:19.80 size: 28627
x264 [info]: consecutive B-frames: 2.8% 4.5% 10.8% 30.1% 20.0% 24.8% 3.8% 2.0% 0.6% 0.3% 0.2%
Общее
Уникальный идентификатор : 235937751708232861454399946731811829350 (0xB17FF54636C035C3BC91E7CEE230F666)
Полное имя : Женщины мафии (Kobiety mafii) 2018 BDRip 1080p.mkv
Формат : Matroska
Версия формата : Version 2
Размер файла : 9,78 Гбайт
Продолжительность : 2 ч. 18 м.
Общий поток : 10,1 Мбит/сек
Дата кодирования : UTC 2018-07-08 05:54:26
Программа кодирования : mkvmerge v4.0.0 ('The Stars were mine') сборка от Jun 6 2010 16:18:42
Библиотека кодирования : libebml v1.0.0 + libmatroska v1.0.0
Видео
Идентификатор : 1
Формат : AVC
Формат/Информация : Advanced Video Codec
Профиль формата : High@L4.1
Параметр CABAC формата : Да
Параметр ReFrames формата : 4 кадра
Идентификатор кодека : V_MPEG4/ISO/AVC
Продолжительность : 2 ч. 18 м.
Битрейт : 8000 Кбит/сек
Ширина : 1920 пикселей
Высота : 812 пикселей
Соотношение сторон : 2,35:1
Режим частоты кадров : Постоянный
Частота кадров : 24,000 кадра/сек
Цветовое пространство : YUV
Субдискретизация насыщенности : 4:2:0
Битовая глубина : 8 бит
Тип развёртки : Прогрессивная
Бит/(Пиксели*Кадры) : 0.214
Размер потока : 7,52 Гбайт (77%)
Библиотека кодирования : x264 core 146 r2538 121396c
Настройки программы : cabac=1 / ref=4 / deblock=1:-3:-3 / analyse=0x3:0x133 / me=umh / subme=11 / psy=1 / psy_rd=1.00:0.00 / mixed_ref=1 / me_range=32 / chroma_me=1 / trellis=2 / 8x8dct=1 / cqm=0 / deadzone=21,11 / fast_pskip=0 / chroma_qp_offset=-2 / threads=12 / lookahead_threads=2 / sliced_threads=0 / nr=0 / decimate=0 / interlaced=0 / bluray_compat=0 / constrained_intra=0 / bframes=10 / b_pyramid=2 / b_adapt=2 / b_bias=0 / direct=3 / weightb=1 / open_gop=0 / weightp=2 / keyint=240 / keyint_min=24 / scenecut=40 / intra_refresh=0 / rc=2pass / mbtree=0 / bitrate=8000 / ratetol=1.0 / qcomp=0.60 / qpmin=0 / qpmax=69 / qpstep=4 / cplxblur=20.0 / qblur=0.5 / ip_ratio=1.40 / pb_ratio=1.30 / aq=1:0.80
Язык : Polish
Default : Нет
Forced : Нет
Аудио #1
Идентификатор : 2
Формат : AC-3
Формат/Информация : Audio Coding 3
Расширение режима : CM (complete main)
Параметр Endianness формата : Big
Идентификатор кодека : A_AC3
Продолжительность : 2 ч. 18 м.
Вид битрейта : Постоянный
Битрейт : 640 Кбит/сек
Каналы : 6 каналов
Расположение каналов : Front: L C R, Side: L R, LFE
Частота : 48,0 КГц
Частота кадров : 31,250 кадров/сек (1536 spf)
Метод сжатия : С потерями
Размер потока : 632 Мбайт (6%)
Заголовок : AVO Гаевский Евгений
Язык : Russian
Default : Нет
Forced : Нет
Аудио #2
Идентификатор : 3
Формат : DTS
Формат/Информация : Digital Theater Systems
Режим : 16
Параметр Endianness формата : Big
Идентификатор кодека : A_DTS
Продолжительность : 2 ч. 18 м.
Вид битрейта : Постоянный
Битрейт : 1509 Кбит/сек
Каналы : 6 каналов
Расположение каналов : Front: L C R, Side: L R, LFE
Частота : 48,0 КГц
Частота кадров : 93,750 кадра/сек (512 spf)
Битовая глубина : 24 бит
Метод сжатия : С потерями
Размер потока : 1,45 Гбайт (15%)
Язык : Polish
Default : Нет
Forced : Нет
Текст #1
Идентификатор : 4
Формат : UTF-8
Идентификатор кодека : S_TEXT/UTF8
Идентификатор кодека/Информация : UTF-8 Plain Text
Язык : Russian
Default : Нет
Forced : Нет
Текст #2
Идентификатор : 5
Формат : UTF-8
Идентификатор кодека : S_TEXT/UTF8
Идентификатор кодека/Информация : UTF-8 Plain Text
Язык : English
Default : Нет
Forced : Нет
[Profile] [PM]
Display posts:    
Reply to topic

Current time is: 10-Dec 17:40

All times are UTC + 3



You cannot post new topics in this forum
You cannot reply to topics in this forum
You cannot edit your posts in this forum
You cannot delete your posts in this forum
You cannot vote in polls in this forum
You cannot attach files in this forum
You cannot download files in this forum