Женщины мафии / Kobiety mafii (2018) BDRip AVC

Reply to topic
 
Author Message

Monk ®

Gender: Male

Longevity: 8 months 2 days

Posts: 7476

Location: Казань

Post 19-Nov-2018 11:11

[Quote]

Женщины мафии / Kobiety mafii Год выпуска: 2018
Жанр: Драма, криминал, боевик
Выпущено: Польша, Showmax, Vega Investments
Режиссер: Патрик Вега
В ролях: Агнешка Дыгант, Ольга Болондзь, Катажина Варнке, Александра Поплавска, Богуслав Линда, Пётр Страмовский, Томаш Освециньский, Себастьян Фабияньский, Шимон Радзимерский, Януш Хабёр, Олаф Любашенко, Катажина Цереквицка, Собота, Кароль Бедорф, Филип Гузля, Филип Хайзер, Ярослав Крет, Мажена Рогальска, Мацей Яховский, Кшиштоф Гурецкий, атрык Янас, Ежи Янечек, Ян Козачук, Максимильян Михасюв, Бартломей Моравский, Катажина Новак, Пётр Новак, Славомир Ольшевский, Артур Овчарек
О фильме: В новом фильме Патрика Веги показаны сплетающиеся в одну нить истории нескольких женщин, тем или иным образом причастных к делам польских преступных группировок. "Белу", уволеннную из полиции, приглашают на службу в Агентство Внутренней Безопасности. Она должна пройти специальную подготовку и внедриться в банду международного торговца наркотиками по прозвищу "Падрино" (Крёстный отец). Анка, типичная "блондинка", существовавшая исключительно на деньги мужа-бандита и ни в чём себе не отказывавшая, после его ареста лишается средств на привычную роскошную жизнь. Нянечка Дарья, искренне привязанная к ребёнку Анки, раньше сносившая все придирки и самодурство хозяйки, неожиданно открывает некоторые грани своего характера, о которых раньше и не подозревала. "Секира", изворотливая хищница, вместе с любовником сбегает от мужа, прихватив с собой огромную сумму не своих денег. "Шубка", дочь Падрино, подсаживается на наркотики, а заодно попадает под разработку спецслужб.

Качество: BDRip AVC
Видео: MPEG-4 AVC, 2203 Kбит/с, 1024x434
Аудио: Русский, польский (AC3, 6 ch, 448 Кбит/с)
Продолжительность: 02:18:00
Перевод: Авторский [Евгений Гаевский]
Субтитры: Русские, английские

Скриншоты


MediaInfo

General
Unique ID : 251645834591691394822207573933537898599 (0xBD51398DF0052B3BAF9B26D455803067)
Complete name : D:\Women.of.Mafia.2018.AVO.BDRip.AVC.ExKinoRay.mkv
Format : Matroska
Format version : Version 2
File size : 2.99 GiB
Duration : 2 h 18 min
Overall bit rate : 3 100 kb/s
Movie name : Women of mafia 2018 from ExKinoRay
Encoded date : UTC 2018-07-13 04:28:15
Writing application : mkvmerge v5.6.0 ('Kenya Kane') built on May 27 2012 16:44:04
Writing library : libebml v1.2.3 + libmatroska v1.3.0
Video
ID : 1
Format : AVC
Format/Info : Advanced Video Codec
Format profile : High@L4.1
Format settings, CABAC : Yes
Format settings, ReFrames : 12 frames
Codec ID : V_MPEG4/ISO/AVC
Duration : 2 h 18 min
Bit rate : 2 203 kb/s
Width : 1 024 pixels
Height : 434 pixels
Display aspect ratio : 2.35:1
Frame rate mode : Constant
Frame rate : 24.000 FPS
Color space : YUV
Chroma subsampling : 4:2:0
Bit depth : 8 bits
Scan type : Progressive
Bits/(Pixel*Frame) : 0.207
Stream size : 2.07 GiB (69%)
Title : Enigma
Writing library : x264 core 152 r2851 ba24899
Encoding settings : cabac=1 / ref=12 / deblock=1:-2:-2 / analyse=0x3:0x113 / me=umh / subme=10 / psy=1 / psy_rd=1.00:0.05 / mixed_ref=1 / me_range=32 / chroma_me=1 / trellis=2 / 8x8dct=1 / cqm=0 / deadzone=21,11 / fast_pskip=0 / chroma_qp_offset=-3 / threads=12 / lookahead_threads=3 / sliced_threads=0 / nr=0 / decimate=0 / interlaced=0 / bluray_compat=0 / constrained_intra=0 / bframes=10 / b_pyramid=2 / b_adapt=2 / b_bias=0 / direct=3 / weightb=1 / open_gop=0 / weightp=2 / keyint=240 / keyint_min=24 / scenecut=40 / intra_refresh=0 / rc=2pass / mbtree=0 / bitrate=2203 / ratetol=1.0 / qcomp=0.65 / qpmin=0 / qpmax=51 / qpstep=4 / cplxblur=20.0 / qblur=0.5 / ip_ratio=1.30 / pb_ratio=1.20 / aq=3:0.90
Language : English
Default : Yes
Forced : No
Color range : Limited
Color primaries : BT.709
Transfer characteristics : BT.709
Matrix coefficients : BT.709
Audio #1
ID : 2
Format : AC-3
Format/Info : Audio Coding 3
Mode extension : CM (complete main)
Format settings, Endianness : Big
Codec ID : A_AC3
Duration : 2 h 18 min
Bit rate mode : Constant
Bit rate : 448 kb/s
Channel(s) : 6 channels
Channel positions : Front: L C R, Side: L R, LFE
Sampling rate : 48.0 kHz
Frame rate : 31.250 FPS (1536 spf)
Compression mode : Lossy
Stream size : 442 MiB (14%)
Title : AVO
Language : Russian
Default : Yes
Forced : No
Audio #2
ID : 3
Format : AC-3
Format/Info : Audio Coding 3
Mode extension : CM (complete main)
Format settings, Endianness : Big
Codec ID : A_AC3
Duration : 2 h 18 min
Bit rate mode : Constant
Bit rate : 448 kb/s
Channel(s) : 6 channels
Channel positions : Front: L C R, Side: L R, LFE
Sampling rate : 48.0 kHz
Frame rate : 31.250 FPS (1536 spf)
Compression mode : Lossy
Stream size : 442 MiB (14%)
Language : Polish
Default : No
Forced : No
Text #1
ID : 4
Format : UTF-8
Codec ID : S_TEXT/UTF8
Codec ID/Info : UTF-8 Plain Text
Language : Russian
Default : No
Forced : No
Text #2
ID : 5
Format : UTF-8
Codec ID : S_TEXT/UTF8
Codec ID/Info : UTF-8 Plain Text
Language : English
Default : No
Forced : No
Menu
00:00:00.000 : :
00:08:50.040 : :
00:19:15.415 : :
00:28:05.125 : :
00:39:12.500 : :
00:48:12.541 : :
00:58:56.708 : :
01:08:07.333 : :
01:18:15.666 : :
01:28:36.707 : :
01:44:42.791 : :
01:59:04.750 : :
[Profile] [PM]
Display posts:    
Reply to topic

Current time is: 17-Jul 10:35

All times are UTC + 3



You cannot post new topics in this forum
You cannot reply to topics in this forum
You cannot edit your posts in this forum
You cannot delete your posts in this forum
You cannot vote in polls in this forum
You cannot attach files in this forum
You cannot download files in this forum