Эксперт [1-2 серии из 2] (2017) WEBRip-AVC от Files-x

Reply to topic
 
Author Message

Серый1779 ®

Gender: Male

Longevity: 11 months 6 days

Posts: 621

Location: Украина

Post 14-Nov-2018 22:27

[Quote]

Эксперт
Год выпуска: 2017
Жанр: Остросюжетный криминал
Выпущено: Россия, ООО Киностудия "Кит", ООО Эн Джи Продакшн
Режиссер: Владимир Фатьянов
В ролях: Павел Чинарёв, Александра Богданова (I), Игорь Лифанов, Андрей Стоянов, Тимур Ефременков, Станислав Эрдлей, Александр Кузнецов (I), Татьяна Шумова, Климентий Бердинский
О фильме: Андрей работает экспертом по безопасности, ведет свободный холостой образ жизни и оптимистично смотрит в будущее. Но однажды спокойная и размеренная жизнь Андрея рушится раз и навсегда - ему вменяют обвинение в ограблении крупного банка, к чьей системе безопасности он имел отношение. Следствие оказывается коротким и не в пользу Андрея: он оказывается за решеткой.
Чтобы доказать свою невиновность, Андрей должен найти настоящих зачинщиков ограбления, а для этого ему необходимо оказаться на свободе. Бывший эксперт по безопасности принимает решение совершить побег в компании с уголовником...

Качество: WEBRip-AVC
Видео: MPEG-4 AVC, ~ 2000 Кбит/с, 1024x528, 25 кадр/с
Аудио: AC3, 2 ch, 192 Кбит/с
Продолжительность: 2 х ~ 00:48:00
Перевод: Не требуется
Субтитры: нет

Скриншоты


MediaInfo

Общее
Уникальный идентификатор : 245073821452335122416923228093771791041 (0xB85F804A3095E6AA87577233F9ADBAC1)
Полное имя : F:\Эксперт.(2017).WEBRip.(AVC).Files-x\01.Эксперт.(2017).WEBRip.(AVC).by.Серый1779.Files-x.mkv
Формат : Matroska
Версия формата : Version 2
Размер файла : 766 Мбайт
Продолжительность : 48 м. 50 с.
Общий поток : 2193 Кбит/сек
Дата кодирования : UTC 2018-11-10 00:45:34
Программа кодирования : mkvmerge v7.8.0 ('River Man') 32bit built on Apr 3 2015 12:11:22
Библиотека кодирования : libebml v1.3.1 + libmatroska v1.4.2
Видео
Идентификатор : 1
Формат : AVC
Формат/Информация : Advanced Video Codec
Профиль формата : High@L4.1
Настройки формата : CABAC / 9 Ref Frames
Параметр CABAC формата : Да
Параметр RefFrames формата : 9 кадров
Идентификатор кодека : V_MPEG4/ISO/AVC
Продолжительность : 48 м. 50 с.
Битрейт : 2000 Кбит/сек
Ширина : 1024 пикселя
Высота : 528 пикселей
Соотношение сторон : 1,939
Режим частоты кадров : Постоянный
Частота кадров : 25,000 кадров/сек
Цветовое пространство : YUV
Субдискретизация насыщенности : 4:2:0
Битовая глубина : 8 бит
Тип развёртки : Прогрессивная
Бит/(Пиксели*Кадры) : 0.148
Размер потока : 684 Мбайт (89%)
Библиотека кодирования : x264 core 146 r2538 121396c
Настройки программы : cabac=1 / ref=9 / deblock=1:-2:-1 / analyse=0x3:0x133 / me=umh / subme=9 / psy=1 / psy_rd=1.00:0.15 / mixed_ref=1 / me_range=32 / chroma_me=1 / trellis=2 / 8x8dct=1 / cqm=0 / deadzone=21,11 / fast_pskip=0 / chroma_qp_offset=-3 / threads=18 / lookahead_threads=3 / sliced_threads=0 / nr=0 / decimate=1 / interlaced=0 / bluray_compat=0 / constrained_intra=0 / bframes=9 / b_pyramid=2 / b_adapt=2 / b_bias=0 / direct=1 / weightb=1 / open_gop=0 / weightp=2 / keyint=250 / keyint_min=25 / scenecut=40 / intra_refresh=0 / rc=2pass / mbtree=0 / bitrate=2000 / ratetol=1.0 / qcomp=0.60 / qpmin=0 / qpmax=69 / qpstep=4 / cplxblur=20.0 / qblur=0.5 / ip_ratio=1.40 / pb_ratio=1.30 / aq=2:1.00
Default : Да
Forced : Нет
Цветовой диапазон : Limited
Основные цвета : BT.709
Характеристики трансфера : BT.709
Коэффициенты матрицы : BT.709
Аудио
Идентификатор : 2
Формат : AC-3
Формат/Информация : Audio Coding 3
Параметр Endianness формата : Big
Идентификатор кодека : A_AC3
Продолжительность : 48 м. 50 с.
Вид битрейта : Постоянный
Битрейт : 192 Кбит/сек
Каналы : 2 канала
Расположение каналов : Front: L R
Частота : 48,0 КГц
Частота кадров : 31,250 кадров/сек (1536 SPF)
Битовая глубина : 16 бит
Метод сжатия : С потерями
Размер потока : 67,1 Мбайт (9%)
ServiceKind/String : Complete Main
Default : Да
Forced : Нет
Релиз от:


Last edited by Серый1779 on 2018-11-22 16:38; edited 2 times in total
[Profile] [PM]
Display posts:    
Reply to topic

Current time is: 18-Oct 22:48

All times are UTC + 3



You cannot post new topics in this forum
You cannot reply to topics in this forum
You cannot edit your posts in this forum
You cannot delete your posts in this forum
You cannot vote in polls in this forum
You cannot attach files in this forum
You cannot download files in this forum