Эксперт [1-2 серии из 2] (2017) HDTVRip от Files-x

Ответить на тему
 
Автор Сообщение

Nicodem ®

Пол: Мужской

Стаж: 2 месяца 28 дней

Сообщений: 172

Создавать темы 17-Ноя-2018 15:46

[Цитировать]

Эксперт
Год выпуска: 2017
Жанр: Криминал
Выпущено: Россия, ООО Киностудия "Кит", ООО Эн Джи Продакшн
Режиссер: Владимир Фатьянов
В ролях: Павел Чинарёв, Александра Богданова, Игорь Лифанов, Андрей Стоянов, Тимур Ефременков, Станислав Эрдлей, Александр Кузнецов, Татьяна Шумова, Климентий Бердинский
О фильме: Лучшего специалиста в области безопасности Андрея Градова обвиняют в ограблении банка «Бастион», чью систему защиты он недавно проверял. Его заключают под стражу, но Градов сидеть за решеткой не намерен. Он понимает: чтобы оказаться на свободе, ему самому придется доказывать свою невиновность. Вместе с сокамерником Сергеем он сбегает из СИЗО. Попутчик не верит в правоту Андрея и угрожает ему, требуя поделиться украденными деньгами. Градову удается «оторваться» от сокамерника и оперативника, ведущего его дело...Стремясь вывести на чистую воду настоящего грабителя, Андрей идет на опасную сделку...
Качество: HDTVRip
Видео: XviD, ~ 1813 Кбит/с, 720x400, 25 Кадр/с
Аудио: AC3, 2 ch, 192 Кбит/с
Продолжительность: 2 х 00:48:00
Перевод: Не требуется
Cубтитры: нет

Скриншоты




MediaInfo

Общее
Полное имя : C:\Users\DOM\Downloads\Эксперт.2017.HDTVRip.by.Nicodem.Files-x\01.Эксперт.2017.HDTVRip.by.Nicodem.Files-x.avi
Формат : AVI
Формат/Информация : Audio Video Interleave
Размер файла : 698 Мбайт
Продолжительность : 48 м.
Общий поток : 2015 Кбит/сек
Программа кодирования : VirtualDubMod 1.5.10.3 | www.virtualdub-fr.org || (build 2550/release)
Библиотека кодирования : VirtualDubMod build 2550/release
Видео
Идентификатор : 0
Формат : MPEG-4 Visual
Профиль формата : Advanced Simple@L5
Параметр BVOP формата : 1
Параметр QPel формата : Нет
Параметр GMC формата : Без точки перехода
Параметр матрицы формата : Выборочная
Идентификатор кодека : XVID
Идентификатор кодека/Подсказка : XviD
Продолжительность : 48 м.
Битрейт : 1813 Кбит/сек
Ширина : 720 пикс.
Высота : 368 пикс.
Соотношение сторон : 1,957
Частота кадров : 25,000 кадр/сек
Цветовое пространство : YUV
Подвыборка цветности : 4:2:0
Битовая глубина : 8 бит
Тип развёртки : Прогрессивная
Метод сжатия : С потерями
Бит/(Пиксели*Кадры) : 0.274
Размер потока : 628 Мбайт (90%)
Библиотека кодирования : XviD 73
Аудио
Идентификатор : 1
Формат : AC-3
Формат/Информация : Audio Coding 3
Расширение режима : CM (complete main)
Идентификатор кодека : 2000
Продолжительность : 48 м.
Вид битрейта : Постоянный
Битрейт : 192 Кбит/сек
Каналы : 2 канала
Расположение каналов : Front: L R
Частота : 48,0 КГц
Битовая глубина : 16 бит
Метод сжатия : С потерями
Размер потока : 66,5 Мбайт (10%)
Выравнивание : Разделение по промежуткам
Продолжительность промежутка : 40 мс. (1,00 видеокадр)
Время предзагрузки промежутка : 500 ms
Релиз от:

Релиз подготовлен R.G.Files-x

[Профиль] [ЛС]
Показать сообщения:    
Ответить на тему

Текущее время: 16-Фев 11:22

Часовой пояс: UTC + 3



Вы не можете начинать темы
Вы не можете отвечать на сообщения
Вы не можете редактировать свои сообщения
Вы не можете удалять свои сообщения
Вы не можете голосовать в опросах
Вы не можете прикреплять файлы к сообщениям
Вы не можете скачивать файлы