Эксперт [1-2 серии из 2] (2017) WEBRip от Files-x

Reply to topic
 
Author Message

bond74 ®

Gender: Male

Longevity: 5 months 8 days

Posts: 311

Post 25-Nov-2018 15:17

[Quote]

Эксперт Год выпуска: 2017
Жанр: Остросюжетный криминал
Выпущено: Россия, ООО Киностудия "Кит", ООО Эн Джи Продакшн
Режиссер: Владимир Фатьянов
В ролях: Павел Чинарёв, Александра Богданова (I), Игорь Лифанов, Андрей Стоянов, Тимур Ефременков, Станислав Эрдлей, Александр Кузнецов (I), Татьяна Шумова, Климентий Бердинский
О фильме: Лучшего специалиста в области безопасности Андрея Градова обвиняют в ограблении банка «Бастион», чью систему защиты он недавно проверял. Его заключают под стражу, но Градов сидеть за решеткой не намерен. Он понимает: чтобы оказаться на свободе, ему самому придется доказывать свою невиновность. Вместе с сокамерником Сергеем он сбегает из СИЗО. Попутчик не верит в правоту Андрея и угрожает ему, требуя поделиться украденными деньгами. Градову удается «оторваться» от сокамерника и оперативника, ведущего его дело...Стремясь вывести на чистую воду настоящего грабителя, Андрей идет на опасную сделку...

Качество: WEBRip
Видео: XviD, ~ 1500 Кбит/с, 720x368, 25 кадр/с
Аудио: AC3, 2 ch, 192 Кбит/с
Продолжительность: 2 х ~ 00:48:00
Перевод: Не требуется
Субтитры: нет

Скриншоты

MediaInfo

General
General
Complete name : D:\Эксперт (2018)..WEB-DLRip.Files-x\1-я серия _Эксперт (2018)..WEB-DLRip.Files-x.avi
Format : AVI
Format/Info : Audio Video Interleave
File size : 594 MiB
Duration : 48 min 50 s
Overall bit rate : 1 702 kb/s
Writing application : VirtualDubMod 1.5.10.3 | www.virtualdub-fr.org || (build 2550/release)
Writing library : VirtualDubMod build 2550/release
Video
ID : 0
Format : MPEG-4 Visual
Format profile : Advanced Simple@L5
Format settings : BVOP1 / Custom Matrix
Format settings, BVOP : 1
Format settings, QPel : No
Format settings, GMC : No warppoints
Format settings, Matrix : Custom
Codec ID : XVID
Codec ID/Hint : XviD
Duration : 48 min 50 s
Bit rate : 1 500 kb/s
Width : 720 pixels
Height : 368 pixels
Display aspect ratio : 1.957
Frame rate : 25.000 FPS
Color space : YUV
Chroma subsampling : 4:2:0
Bit depth : 8 bits
Scan type : Progressive
Compression mode : Lossy
Bits/(Pixel*Frame) : 0.226
Stream size : 524 MiB (88%)
Writing library : XviD 73
Audio
ID : 1
Format : AC-3
Format/Info : Audio Coding 3
Codec ID : 2000
Duration : 48 min 50 s
Bit rate mode : Constant
Bit rate : 192 kb/s
Channel(s) : 2 channels
Channel positions : Front: L R
Sampling rate : 48.0 kHz
Frame rate : 31.250 FPS (1536 SPF)
Bit depth : 16 bits
Compression mode : Lossy
Stream size : 67.1 MiB (11%)
Alignment : Split accross interleaves
Interleave, duration : 40 ms (1.00 video frame)
Interleave, preload duratio : 500 ms
Service kind : Complete Main
Релиз от:
[Profile] [PM]
Display posts:    
Reply to topic

Current time is: 23-Apr 09:58

All times are UTC + 3



You cannot post new topics in this forum
You cannot reply to topics in this forum
You cannot edit your posts in this forum
You cannot delete your posts in this forum
You cannot vote in polls in this forum
You cannot attach files in this forum
You cannot download files in this forum