Ненастье [1-11 серия из 11] (2018) HDTVRip-AVC от Files-x

Reply to topic
 
Author Message

Серый1779 ®

Gender: Male

Longevity: 5 months 13 days

Posts: 392

Location: Украина

Post 15-Nov-2018 11:20

[Quote]

Ненастье
Год выпуска: 2018
Жанр: Драма, экранизация
Выпущено: Россия, Москино
Режиссер: Сергей Урсуляк
В ролях: Александр Яценко, Александр Горбатов (II), Татьяна Лялина, Сергей Маковецкий, Серафима Красникова, Сослан Фидаров, Антон Филипенко, Евгений Смирнов-Иваницкий, Олег Кассин, Александр Голубев, Олег Байкулов, Тарас Епифанцев, Алексей Дякин, Никита Тезов, Александр Кузнецов (IX), Максим Деричев, Татьяна Сомова, Иван Куколев, Валерий Карпов (III)
О фильме: Они вернулись в свою страну после Афганистана, но страна стала совсем другой. Они рассчитывают только на себя. Они доверяют только друг другу. В одном из уральских городов совершено дерзкое ограбление! Похищены 140 миллионов рублей! Грабитель — бывший «афганец» Герман Неволин, водитель инкассаторской машины. Что толкнуло его на преступление? Почему он принёс в жертву всё, чем дорожил — дружбу, любовь, и теперь вынужден скрываться в заброшенной деревушке Ненастье?..
Качество: HDTVRip-AVC
Видео: MPEG-4 AVC, ~ 2000 Кбит/с, 1024x576, 25 кадр/с
Аудио: AC3, 2 ch, 192 Кбит/с
Продолжительность: 11 x ~ 00:45:00
Перевод: Не требуется
Субтитры: нет

Скриншоты


MediaInfo

Общее
Уникальный идентификатор : 180793972294628663849555279155993097580 (0x8803A70A49160D77801BE03B6329B56C)
Полное имя : F:\Nenast'e.(2018).HDTVRip.(AVC).Files-x\01.Ненастье.(2018).HDTVRip.(AVC).by.Серый1779.Files-x.mkv
Формат : Matroska
Версия формата : Version 2
Размер файла : 717 Мбайт
Продолжительность : 45 м. 41 с.
Общий поток : 2193 Кбит/сек
Дата кодирования : UTC 2018-11-13 01:10:05
Программа кодирования : mkvmerge v7.8.0 ('River Man') 32bit built on Apr 3 2015 12:11:22
Библиотека кодирования : libebml v1.3.1 + libmatroska v1.4.2
Видео
Идентификатор : 1
Формат : AVC
Формат/Информация : Advanced Video Codec
Профиль формата : High@L4.1
Настройки формата : CABAC / 9 Ref Frames
Параметр CABAC формата : Да
Параметр RefFrames формата : 9 кадров
Идентификатор кодека : V_MPEG4/ISO/AVC
Продолжительность : 45 м. 41 с.
Битрейт : 2000 Кбит/сек
Ширина : 1024 пикселя
Высота : 576 пикселей
Соотношение сторон : 16:9
Режим частоты кадров : Постоянный
Частота кадров : 25,000 кадров/сек
Цветовое пространство : YUV
Субдискретизация насыщенности : 4:2:0
Битовая глубина : 8 бит
Тип развёртки : Прогрессивная
Бит/(Пиксели*Кадры) : 0.136
Размер потока : 640 Мбайт (89%)
Библиотека кодирования : x264 core 146 r2538 121396c
Настройки программы : cabac=1 / ref=9 / deblock=1:-2:-1 / analyse=0x3:0x133 / me=umh / subme=9 / psy=1 / psy_rd=1.00:0.15 / mixed_ref=1 / me_range=32 / chroma_me=1 / trellis=2 / 8x8dct=1 / cqm=0 / deadzone=21,11 / fast_pskip=0 / chroma_qp_offset=-3 / threads=18 / lookahead_threads=3 / sliced_threads=0 / nr=0 / decimate=1 / interlaced=0 / bluray_compat=0 / constrained_intra=0 / bframes=9 / b_pyramid=2 / b_adapt=2 / b_bias=0 / direct=1 / weightb=1 / open_gop=0 / weightp=2 / keyint=250 / keyint_min=25 / scenecut=40 / intra_refresh=0 / rc=2pass / mbtree=0 / bitrate=2000 / ratetol=1.0 / qcomp=0.60 / qpmin=0 / qpmax=69 / qpstep=4 / cplxblur=20.0 / qblur=0.5 / ip_ratio=1.40 / pb_ratio=1.30 / aq=2:1.00
Default : Да
Forced : Нет
Цветовой диапазон : Limited
Основные цвета : BT.709
Характеристики трансфера : BT.709
Коэффициенты матрицы : BT.709
Аудио
Идентификатор : 2
Формат : AC-3
Формат/Информация : Audio Coding 3
Параметр Endianness формата : Big
Идентификатор кодека : A_AC3
Продолжительность : 45 м. 41 с.
Вид битрейта : Постоянный
Битрейт : 192 Кбит/сек
Каналы : 2 канала
Расположение каналов : Front: L R
Частота : 48,0 КГц
Частота кадров : 31,250 кадров/сек (1536 SPF)
Битовая глубина : 16 бит
Метод сжатия : С потерями
Размер потока : 62,8 Мбайт (9%)
ServiceKind/String : Complete Main
Default : Да
Forced : Нет
Релиз от:


Last edited by Серый1779 on 2018-12-01 00:48; edited 8 times in total
[Profile] [PM]

Starik60

Gender: Male

Longevity: 5 months 13 days

Posts: 121

Location: Москва, Россия

Post 15-Nov-2018 11:51 (after 30 minutes)

[Quote]

Здравствуйте. Когда планируете добавлять новые серии?
[Profile] [PM]
Display posts:    
Reply to topic

Current time is: 25-Apr 17:49

All times are UTC + 3



You cannot post new topics in this forum
You cannot reply to topics in this forum
You cannot edit your posts in this forum
You cannot delete your posts in this forum
You cannot vote in polls in this forum
You cannot attach files in this forum
You cannot download files in this forum