Ненастье [1-11 серия из 11] (2018) HDTVRip от Generalfilm | КПК (2018 ) HDTVRip | КПК

Reply to topic
 
Author Message

mjjhec ®

Gender: Male

Longevity: 5 months 5 days

Posts: 185

Location: СССР

Post 17-Nov-2018 21:31

[Quote]

Ненастье
Год выпуска: 2018 г.
Жанр: Драма
Выпущено: Россия, Москино
Режиссер: Сергей Урсуляк
В ролях: Александр Яценко (Герман Неволин), Сергей Маковецкий (Яр-Саныч), Татьяна Лялина (Танюша Куделина), Александр Голубев (Басунов), Александр Горбатов (Серега Лихолетов), Дмитрий Кривочуров (Билл Нескоров), Александр Аноприков (Саня Ковылкин), Олеся Сугак (жена афганца), Анна Неверова (журналистка), Александр Иванов (бандит), Вилен Бабичев, Гарик Айвазов.
О фильме: Они вернулись в свою страну после Афганистана, но страна стала совсем другой. Они рассчитывают только на себя. Они доверяют только друг другу.
В одном из уральских городов совершено дерзкое ограбление! Похищены 140 миллионов рублей! Грабитель — бывший «афганец» Герман Неволин, водитель инкассаторской машины. Что толкнуло его на преступление? Почему он принёс в жертву всё, чем дорожил — дружбу, любовь, и теперь вынужден скрываться в заброшенной деревушке Ненастье?..
Качество: HDTVRip | КПК
Видео: Н.264, 640x360 (16:9), 25 fps, 400 Kbps
Аудио: AAC LC, 48 KHz, 2 ch, 128 Kbps
Продолжительность: 11 x ~00:45:00
Перевод: Не требуется
Cубтитры: нет

Скриншоты

MediaInfo

General
Complete name : F:\Rip\Nenaste.by.mjjhec\Nenaste.03.seriya.2018.HDTVRip.mp4
Format : MPEG-4
Format profile : Base Media
Codec ID : isom (isom/avc1/iso6)
File size : 168 MiB
Duration : 44 min 6 s
Overall bit rate mode : Variable
Overall bit rate : 532 kb/s
Encoded date : UTC 2018-11-16 09:33:33
Tagged date : UTC 2018-11-16 09:33:33
Video
ID : 1
Format : AVC
Format/Info : Advanced Video Codec
Format profile : High@L4.1
Format settings : CABAC / 10 Ref Frames
Format settings, CABAC : Yes
Format settings, ReFrames : 10 frames
Codec ID : avc1
Codec ID/Info : Advanced Video Coding
Duration : 44 min 6 s
Bit rate : 400 kb/s
Maximum bit rate : 1 131 kb/s
Width : 640 pixels
Height : 360 pixels
Display aspect ratio : 16:9
Frame rate mode : Constant
Frame rate : 25.000 FPS
Color space : YUV
Chroma subsampling : 4:2:0
Bit depth : 8 bits
Scan type : Progressive
Bits/(Pixel*Frame) : 0.069
Stream size : 126 MiB (75%)
Title : 264@GPAC0.5.2-DEV-rev248-g39d5978-master
Writing library : x264 core 146 r2538 121396c
Encoding settings : cabac=1 / ref=10 / deblock=1:-3:-3 / analyse=0x3:0x133 / me=umh / subme=11 / psy=1 / psy_rd=1.00:1.00 / mixed_ref=1 / me_range=48 / chroma_me=1 / trellis=2 / 8x8dct=1 / cqm=0 / deadzone=21,11 / fast_pskip=1 / chroma_qp_offset=-4 / threads=6 / lookahead_threads=1 / sliced_threads=0 / nr=0 / decimate=0 / interlaced=0 / bluray_compat=0 / constrained_intra=0 / bframes=10 / b_pyramid=2 / b_adapt=2 / b_bias=0 / direct=3 / weightb=1 / open_gop=0 / weightp=2 / keyint=240 / keyint_min=24 / scenecut=40 / intra_refresh=0 / rc_lookahead=60 / rc=2pass / mbtree=0 / bitrate=400 / ratetol=1.0 / qcomp=0.60 / qpmin=0 / qpmax=69 / qpstep=4 / cplxblur=20.0 / qblur=0.5 / vbv_maxrate=14000 / vbv_bufsize=14000 / nal_hrd=none / filler=0 / ip_ratio=1.40 / pb_ratio=1.30 / aq=1:1.00
Encoded date : UTC 2018-11-16 09:33:33
Tagged date : UTC 2018-11-16 09:33:37
Codec configuration box : avcC
Audio
ID : 2
Format : AAC LC
Format/Info : Advanced Audio Codec Low Complexity
Codec ID : mp4a-40-2
Duration : 44 min 6 s
Bit rate mode : Variable
Bit rate : 128 kb/s
Maximum bit rate : 135 kb/s
Channel(s) : 2 channels
Channel layout : L R
Sampling rate : 48.0 kHz
Frame rate : 46.875 FPS (1024 SPF)
Compression mode : Lossy
Stream size : 40.4 MiB (24%)
Encoded date : UTC 2018-11-16 08:38:31
Tagged date : UTC 2018-11-16 09:33:37
Релиз от:
[Profile] [PM]
Display posts:    
Reply to topic

Current time is: 22-Apr 08:03

All times are UTC + 3



You cannot post new topics in this forum
You cannot reply to topics in this forum
You cannot edit your posts in this forum
You cannot delete your posts in this forum
You cannot vote in polls in this forum
You cannot attach files in this forum
You cannot download files in this forum