Ненастье [1-11 серии из 11] (2018) HDTVRip от Files-x

Reply to topic
 
Author Message

bond74 ®

Gender: Male

Longevity: 6 months 4 days

Posts: 423

Post 25-Nov-2018 15:06

[Quote]

Ненастье Год выпуска: 2018
Жанр: Драма, экранизация
Выпущено: Россия, Москино
Режиссер: Сергей Урсуляк
В ролях: Александр Яценко, Александр Горбатов (II), Татьяна Лялина, Сергей Маковецкий, Серафима Красникова, Сослан Фидаров, Антон Филипенко, Евгений Смирнов-Иваницкий, Олег Кассин, Александр Голубев, Олег Байкулов, Тарас Епифанцев, Алексей Дякин, Никита Тезов, Александр Кузнецов (IX), Максим Деричев, Татьяна Сомова, Иван Куколев, Валерий Карпов (III)
О фильме: Они вернулись в свою страну после Афганистана, но страна стала совсем другой. Они рассчитывают только на себя. Они доверяют только друг другу. В одном из уральских городов совершено дерзкое ограбление! Похищены 140 миллионов рублей! Грабитель — бывший «афганец» Герман Неволин, водитель инкассаторской машины. Что толкнуло его на преступление? Почему он принёс в жертву всё, чем дорожил — дружбу, любовь, и теперь вынужден скрываться в заброшенной деревушке Ненастье?..

Качество: HDTVRip
Видео: XviD, ~ 1500 Кбит/с, 720x400, 25 кадр/с
Аудио: AC3, 2 ch, 192 Кбит/с
Продолжительность: 11 x ~ 00:45:00
Перевод: Не требуется

Скриншоты

MediaInfo

General
General
Complete name : D:\Ненастье.2018 .HDTVip.Files-x\01.Ненастье.2018 .HDTVip.Files-x.avi
Format : AVI
Format/Info : Audio Video Interleave
File size : 555 MiB
Duration : 45 min 41 s
Overall bit rate : 1 699 kb/s
Writing application : VirtualDubMod 1.5.10.3 | www.virtualdub-fr.org || (build 2550/release)
Writing library : VirtualDubMod build 2550/release
Video
ID : 0
Format : MPEG-4 Visual
Format profile : Advanced Simple@L5
Format settings : BVOP1 / Custom Matrix
Format settings, BVOP : 1
Format settings, QPel : No
Format settings, GMC : No warppoints
Format settings, Matrix : Custom
Codec ID : XVID
Codec ID/Hint : XviD
Duration : 45 min 41 s
Bit rate : 1 497 kb/s
Width : 720 pixels
Height : 400 pixels
Display aspect ratio : 16:9
Frame rate : 25.000 FPS
Color space : YUV
Chroma subsampling : 4:2:0
Bit depth : 8 bits
Scan type : Progressive
Compression mode : Lossy
Bits/(Pixel*Frame) : 0.208
Stream size : 489 MiB (88%)
Writing library : XviD 73
Audio
ID : 1
Format : AC-3
Format/Info : Audio Coding 3
Codec ID : 2000
Duration : 45 min 41 s
Bit rate mode : Constant
Bit rate : 192 kb/s
Channel(s) : 2 channels
Channel positions : Front: L R
Sampling rate : 48.0 kHz
Frame rate : 31.250 FPS (1536 SPF)
Bit depth : 16 bits
Compression mode : Lossy
Stream size : 62.8 MiB (11%)
Alignment : Split accross interleaves
Interleave, duration : 40 ms (1.00 video frame)
Interleave, preload duratio : 500 ms
Service kind : Complete Main
Релиз от:


Last edited by bond74 on 2018-11-25 22:48; edited 1 time in total
[Profile] [PM]
Display posts:    
Reply to topic

Current time is: 19-May 14:39

All times are UTC + 3



You cannot post new topics in this forum
You cannot reply to topics in this forum
You cannot edit your posts in this forum
You cannot delete your posts in this forum
You cannot vote in polls in this forum
You cannot attach files in this forum
You cannot download files in this forum