Доктор Рихтер: Продолжение [2 сезон: 1-16 серия из 16] (2018) HDTVRip-AVC от Files-x

Reply to topic
 
Author Message

Серый1779 ®

Gender: Male

Longevity: 5 months 6 days

Posts: 381

Location: Украина

Post 20-Nov-2018 19:02

[Quote]

Доктор Рихтер
Год выпуска: 2018
Жанр: Драма, детектив, медицина, адаптация
Выпущено: Россия, Нон-стоп продакшн, кинокомпания Перевал
Режиссер: Александр Прошкин
В ролях: Алексей Серебряков, Дмитрий Ендальцев, Полина Чернышова, Павел Чинарёв, Анна Михалкова, Виталий Хаев, Александр Яценко, Мария Миронова (II), Екатерина Вилкова, Александр Робак, Ирина Пегова, Дарья Екамасова, Полина Ауг, Мария Шалаева, Семён Трескунов, Кирилл Плетнёв, Юлия Пересильд, Анатолий Белый, Александр Галибин, Сахат Дурсунов, Вероника Корниенко, Максим Сапрыкин (II), Мария Болтнева, Алёна Мордовина, Федя Смирнов (II), Эмилия Климова, Елена Котельникова, Александр Андриенко, Ксения Дорохова, Анна Тараторкина, Александра Никифорова, Сергей Друзьяк
О фильме:В продолжении популярного сериала доктор Андрей Александрович Рихтер и сотрудники возглавляемого им отделения клинической диагностики вновь разгадывают, казалось бы, неразрешимые медицинские загадки и спасают человеческие жизни. Рихтер – настоящий профессионал и даже гений своего дела. Его интересуют только самые сложные, запутанные случаи, рутинная же работа в больничной поликлинике навевает скуку и раздражает. Правильные диагнозы ему позволяет ставить не только глубокое знание медицины, но также понимание человеческой психологии, своеобразная дедукция и врачебная интуиция. Его история – это спор науки с человеческими слабостями, разума – с самой природой
Качество: HDTVRip (AVC)
Видео: MPEG-4 AVC, ~ 2000 Кбит/с, 1024x576, 25 кадр/с
Аудио: AC3, 2 ch, 192 Кбит/с
Продолжительность: 16 x ~ 00:51:00
Перевод: Не требуется
Субтитры: нет

Скриншоты


MediaInfo

Общее
Уникальный идентификатор : 249920307333161518359928567282971912138 (0xBC04E67E03E57AA79204A66D299327CA)
Полное имя : F:\Доктор Рихтер. Продолжение.s02.(2018).HDTVRip.(AVC).Files-x\01.Доктор Рихтер. Продолжение.(2018).HDTVRip.(AVC).by.Серый1779.Files-x.mkv
Формат : Matroska
Версия формата : Version 2
Размер файла : 814 Мбайт
Продолжительность : 51 м. 54 с.
Общий поток : 2194 Кбит/сек
Дата кодирования : UTC 2018-11-20 02:37:40
Программа кодирования : mkvmerge v7.8.0 ('River Man') 32bit built on Apr 3 2015 12:11:22
Библиотека кодирования : libebml v1.3.1 + libmatroska v1.4.2
Видео
Идентификатор : 1
Формат : AVC
Формат/Информация : Advanced Video Codec
Профиль формата : High@L4.1
Настройки формата : CABAC / 9 Ref Frames
Параметр CABAC формата : Да
Параметр RefFrames формата : 9 кадров
Идентификатор кодека : V_MPEG4/ISO/AVC
Продолжительность : 51 м. 54 с.
Битрейт : 2000 Кбит/сек
Ширина : 1024 пикселя
Высота : 576 пикселей
Соотношение сторон : 16:9
Режим частоты кадров : Постоянный
Частота кадров : 25,000 кадров/сек
Цветовое пространство : YUV
Субдискретизация насыщенности : 4:2:0
Битовая глубина : 8 бит
Тип развёртки : Прогрессивная
Бит/(Пиксели*Кадры) : 0.136
Размер потока : 727 Мбайт (89%)
Библиотека кодирования : x264 core 146 r2538 121396c
Настройки программы : cabac=1 / ref=9 / deblock=1:-2:-1 / analyse=0x3:0x133 / me=umh / subme=9 / psy=1 / psy_rd=1.00:0.15 / mixed_ref=1 / me_range=32 / chroma_me=1 / trellis=2 / 8x8dct=1 / cqm=0 / deadzone=21,11 / fast_pskip=0 / chroma_qp_offset=-3 / threads=18 / lookahead_threads=3 / sliced_threads=0 / nr=0 / decimate=1 / interlaced=0 / bluray_compat=0 / constrained_intra=0 / bframes=9 / b_pyramid=2 / b_adapt=2 / b_bias=0 / direct=1 / weightb=1 / open_gop=0 / weightp=2 / keyint=250 / keyint_min=25 / scenecut=40 / intra_refresh=0 / rc=2pass / mbtree=0 / bitrate=2000 / ratetol=1.0 / qcomp=0.60 / qpmin=0 / qpmax=69 / qpstep=4 / cplxblur=20.0 / qblur=0.5 / ip_ratio=1.40 / pb_ratio=1.30 / aq=2:1.00
Default : Да
Forced : Нет
Цветовой диапазон : Limited
Основные цвета : BT.709
Характеристики трансфера : BT.709
Коэффициенты матрицы : BT.709
Аудио
Идентификатор : 2
Формат : AC-3
Формат/Информация : Audio Coding 3
Параметр Endianness формата : Big
Идентификатор кодека : A_AC3
Продолжительность : 51 м. 54 с.
Вид битрейта : Постоянный
Битрейт : 192 Кбит/сек
Каналы : 2 канала
Расположение каналов : Front: L R
Частота : 48,0 КГц
Частота кадров : 31,250 кадров/сек (1536 SPF)
Битовая глубина : 16 бит
Метод сжатия : С потерями
Размер потока : 71,3 Мбайт (9%)
ServiceKind/String : Complete Main
Default : Да
Forced : Нет

Внимание! Раздача ведётся путём добавления новых серий

Раздача ведётся путём добавления новых серий, при каждом добавлении создаётся новый торрент. Чтобы начать докачку новой серии, пользователям необходимо сделать следующее:
- Остановить скачивание.
- Удалить старый торрент у себя из клиента (старые серии удалять не надо).
- Скачать новый торрент и запустить его у себя в клиенте вместо старого, при этом указать клиенту путь в старую папку куда и должно происходить скачивание новых серий.
Ваш клиент при этом должен произвести хеширование (проверку) старой папки (если не производит сам - помогите ему сделать это), и будет докачивать только те серии которых у вас ещё нет. Старые серии при этом не удаляются, а продолжают раздаваться!
Если вы уже удалили старые серии, то предотвратить повторную закачку старых серий можно, отжав галочку в соответствующих местах при запуске нового торрента. По возможности, желательно не удалять старые серии как можно дольше, чтобы релизер не столько продолжал раздавать старые серии, а смог сконцентрироваться на новых.
Релиз:
[Profile] [PM]
Display posts:    
Reply to topic

Current time is: 18-Apr 16:23

All times are UTC + 3



You cannot post new topics in this forum
You cannot reply to topics in this forum
You cannot edit your posts in this forum
You cannot delete your posts in this forum
You cannot vote in polls in this forum
You cannot attach files in this forum
You cannot download files in this forum