Доктор Рихтер. Продолжение [2 сезон: 1-16 серии из 16] (2018) HDTVRip 720p

Reply to topic
 
Author Message

Nicodem ®

Gender: Male

Longevity: 6 months 29 days

Posts: 178

Post 23-Nov-2018 18:31

[Quote]

Доктор Рихтер. Продолжение
Год выпуска: 2018
Жанр: Драма, детектив, медицина, адаптация
Выпущено: Россия, Нон-стоп Продакшн, Кнокомпания "Перевал"
Режиссер: Максим Демченко, Андрей Прошкин
В ролях: Алексей Серебряков, Дмитрий Ендальцев, Полина Чернышова, Павел Чинарёв, Анна Михалкова, Виталий Хаев, Мария Миронова (II), Олег Васильков, Юлия Акимова, Мария Смольникова, Михаил Пореченков, Филипп Гуревич, Андрей Кузичёв, Полина Ватага, Евгения Бурдихина, Фаррух Гафуров, Рамиля Искандер, Евгений Муравич, Полина Агуреева, Сергей Угрюмов, Юлия Кудояр, Сергей Никоненко, Роман Мадянов, Светлана Немоляева, Дмитрий Певцов, Эммануил Виторган, Юлия Ауг
О фильме: В продолжении популярного сериала доктор Андрей Александрович Рихтер и сотрудники возглавляемого им отделения клинической диагностики вновь разгадывают, казалось бы, неразрешимые медицинские загадки и спасают человеческие жизни. Рихтер – настоящий профессионал и даже гений своего дела. Его интересуют только самые сложные, запутанные случаи, рутинная же работа в больничной поликлинике навевает скуку и раздражает. Правильные диагнозы ему позволяет ставить не только глубокое знание медицины, но также понимание человеческой психологии, своеобразная дедукция и врачебная интуиция. Его история – это спор науки с человеческими слабостями, разума – с самой природой.

Качество: HDTVRip 720p
Видео: MPEG-4 AVC, ~ 4000 Кбит/с, 1280x720, 25 кадр/с
Аудио: AC3, 2 ch, 192 Кбит/с
Продолжительность: 16 x ~ 00:50:00
Перевод: Не требуется
Cубтитры: нет
Сэмпл

Скриншоты


MediaInfo

General
Unique ID : 199657529718534407557556353974320840700 (0x9634A43A0C199E509913691EDBB93FFC)
Complete name : C:\Users\DOM\Downloads\Doktor.Rihter.S02.2018.HDTVRip.(720p).Nikolspup\Doktor.Rihter.S02.(01.seriya).2018.HDTVRip.(720p).Nikolspup.mkv
Format : Matroska
File size : 1.52 GiB
Duration : 51mn 58s
Overall bit rate : 4 193 Kbps
Encoded date : UTC 2018-11-19 20:23:16
Writing application : mkvmerge v7.8.0 ('River Man') 32bit built on Mar 27 2015 16:18:02
Writing library : libebml v1.3.1 + libmatroska v1.4.2
Video
ID : 1
Format : AVC
Format/Info : Advanced Video Codec
Format profile : High@L4.1
Format settings, CABAC : Yes
Format settings, ReFrames : 9 frames
Codec ID : V_MPEG4/ISO/AVC
Duration : 51mn 58s
Bit rate : 4 000 Kbps
Width : 1 280 pixels
Height : 720 pixels
Display aspect ratio : 16:9
Frame rate : 25.000 fps
Color space : YUV
Chroma subsampling : 4:2:0
Bit depth : 8 bits
Scan type : Progressive
Bits/(Pixel*Frame) : 0.174
Stream size : 1.42 GiB (93%)
Writing library : x264 core 146 r2538 121396c
Encoding settings : cabac=1 / ref=9 / deblock=1:-2:-1 / analyse=0x3:0x133 / me=umh / subme=9 / psy=1 / psy_rd=1.00:0.20 / mixed_ref=1 / me_range=32 / chroma_me=1 / trellis=2 / 8x8dct=1 / cqm=0 / deadzone=21,11 / fast_pskip=1 / chroma_qp_offset=-3 / threads=16 / lookahead_threads=8 / sliced_threads=0 / nr=0 / decimate=1 / interlaced=0 / bluray_compat=0 / constrained_intra=0 / bframes=11 / b_pyramid=2 / b_adapt=2 / b_bias=0 / direct=1 / weightb=1 / open_gop=0 / weightp=2 / keyint=250 / keyint_min=25 / scenecut=40 / intra_refresh=0 / rc=2pass / mbtree=0 / bitrate=4000 / ratetol=1.0 / qcomp=0.60 / qpmin=0 / qpmax=69 / qpstep=4 / cplxblur=20.0 / qblur=0.5 / ip_ratio=1.40 / pb_ratio=1.30 / aq=3:1.00
Color primaries : BT.709-5, BT.1361, IEC 61966-2-4, SMPTE RP177
Transfer characteristics : BT.709-5, BT.1361
Matrix coefficients : BT.709-5, BT.1361, IEC 61966-2-4 709, SMPTE RP177
Audio
ID : 2
Format : AC-3
Format/Info : Audio Coding 3
Mode extension : CM (complete main)
Codec ID : A_AC3
Duration : 51mn 58s
Bit rate mode : Constant
Bit rate : 192 Kbps
Channel(s) : 2 channels
Channel positions : Front: L R
Sampling rate : 48.0 KHz
Bit depth : 16 bits
Compression mode : Lossy
Stream size : 71.4 MiB (5%)
Language : Russian

Раздача ведётся путём добавления новых серий

Внимание! Раздача ведётся путём добавления новых серий; при каждом добавлении создаётся новый торрент.
Чтобы начать докачку новой серии, пользователям необходимо сделать следующее:
1. Остановить скачивание;
2. Удалить старый торрент у себя из клиента (старые серии удалять не надо);
3. Скачать новый торрент и запустить его у себя в клиенте вместо старого, при этом указать клиенту путь в старую папку куда и должно происходить скачивание новых серий. Ваш клиент при этом должен произвести хеширование (проверку) старой папки и будет докачивать только те серии, которых у вас ещё нет. Старые серии при этом не удаляются, а продолжают раздаваться! Eсли вы уже удалили старые серии, то предотвратить повторную закачку старых серий можно, отжав галочку в соответствующих местах при запуске нового торрента.
[Profile] [PM]
Display posts:    
Reply to topic

Current time is: 17-Jun 11:01

All times are UTC + 3



You cannot post new topics in this forum
You cannot reply to topics in this forum
You cannot edit your posts in this forum
You cannot delete your posts in this forum
You cannot vote in polls in this forum
You cannot attach files in this forum
You cannot download files in this forum