Доктор Рихтер. Продолжение [2 сезон: 1-16 серия из 16] (2018) HDTV 1080p R.G.Generalfilm

Ответить на тему
 
Автор Сообщение

White Smoke ®

Пол: Мужской

Стаж: 3 месяца 3 дня

Сообщений: 29

Создавать темы 22-Ноя-2018 16:44

[Цитировать]

Доктор Рихтер. Продолжение
Год выпуска: 2018
Жанр: драма, детектив
Выпущено: Россия, Нон-стоп Продакшн
Режиссер: Максим Демченко, Андрей Прошкин
В ролях: Алексей Серебряков (Андрей Александрович Рихтер, заведующий лечебно-диагностическим отделением), Дмитрий Ендальцев (Калинин, хирург), Полина Чернышова (Ольга Ходасевич, иммунолог), Павел Чинарёв (Руслан Егоршин, невролог), Анна Михалкова (Елизавета Никольская, эндокринолог и заведующая клиникой), Виталий Хаев (Иван Родионов, онколог, друг Рихтера), Александр Яценко (Григорий Филин, миллионер, жертвующий клинике большие суммы денег), Мария Миронова (юрист и бывшая гражданская жена Рихтера), Екатерина Вилкова (Ирина), Александр Робак (Шевцов), Ирина Пегова (мать Демьяна), Дарья Екамасова
О фильме: В продолжении популярного сериала доктор Андрей Александрович Рихтер и сотрудники возглавляемого им отделения клинической диагностики вновь разгадывают, казалось бы, неразрешимые медицинские загадки и спасают человеческие жизни. Рихтер – настоящий профессионал и даже гений своего дела. Его интересуют только самые сложные, запутанные случаи, рутинная же работа в больничной поликлинике навевает скуку и раздражает. Правильные диагнозы ему позволяет ставить не только глубокое знание медицины, но также понимание человеческой психологии, своеобразная дедукция и врачебная интуиция. Его история – это спор науки с человеческими слабостями, разума – с самой природой.
Качество: HDTV 1080p Запись с телеканала РОССИЯ HD
Видео: AVC, 1920x1080 (16:9), 7050 kbps, 25 fps, 0,136 bpp
Аудио: AC3 / 2.0 / 48 kHz / 192
Перевод: Не требуется
Продолжительность: 16 х ~ 00:50:48
Cубтитры: нет

Скриншоты





MediaInfo

General
Unique ID : 176218087389814346056314147789133921849 (0x84925E7EF44D97AC8DDD1CBDAA6D3E39)
Complete name : E:\Запись с тв\Doktor Rixter S02.2018.HDTV 1080p.RG GeneralFilm\Doktor Rixter.s02.e03.2018.HDTV 1080p.by.White Smoke.R.G.Generalfilm.mkv
Format : Matroska
Format version : Version 4 / Version 2
File size : 2.56 GiB
Duration : 50 min
Overall bit rate mode : Constant
Overall bit rate : 7 220 kb/s
Movie name : Doktor Rixter.s02.e03.2018.HDTV 1080p.by.White Smoke.R.G.Generalfilm.mkv
Encoded date : UTC 2018-11-21 19:57:03
Writing application : mkvmerge v6.8.0 ('Theme for Great Cities') 64bit built on Mar 2 2014 21:34:26
Writing library : libebml v1.3.0 + libmatroska v1.4.1
Cover : Yes
Attachments : cover.jpg
Video
ID : 1
Format : AVC
Format/Info : Advanced Video Codec
Format profile : High@L4.1
Format settings, CABAC : Yes
Format settings, ReFrames : 3 frames
Codec ID : V_MPEG4/ISO/AVC
Duration : 50 min
Bit rate mode : Constant
Bit rate : 7 051 kb/s
Width : 1 920 pixels
Height : 1 080 pixels
Display aspect ratio : 16:9
Frame rate mode : Constant
Frame rate : 25.000 FPS
Standard : PAL
Color space : YUV
Chroma subsampling : 4:2:0
Bit depth : 8 bits
Scan type : Progressive
Bits/(Pixel*Frame) : 0.136
Stream size : 2.44 GiB (95%)
Default : Yes
Forced : No
Color range : Limited
Color primaries : BT.709
Transfer characteristics : BT.709
Matrix coefficients : BT.709
Audio
ID : 2
Format : AC-3
Format/Info : Audio Coding 3
Mode extension : CM (complete main)
Format settings, Endianness : Big
Codec ID : A_AC3
Duration : 50 min
Bit rate mode : Constant
Bit rate : 192 kb/s
Channel(s) : 2 channels
Channel positions : Front: L R
Sampling rate : 48.0 kHz
Frame rate : 31.250 FPS (1536 spf)
Compression mode : Lossy
Stream size : 69.8 MiB (3%)
Default : Yes
Forced : No
[Профиль] [ЛС]
Показать сообщения:    
Ответить на тему

Текущее время: 16-Фев 11:20

Часовой пояс: UTC + 3



Вы не можете начинать темы
Вы не можете отвечать на сообщения
Вы не можете редактировать свои сообщения
Вы не можете удалять свои сообщения
Вы не можете голосовать в опросах
Вы не можете прикреплять файлы к сообщениям
Вы не можете скачивать файлы