Зои / Zoe (2018) BDRip 720p | iTunes

Ответить на тему
 
Автор Сообщение

Monk ®

Пол: Мужской

Стаж: 3 месяца 3 дня

Сообщений: 3233

Откуда: Казань

Создавать темы 22-Ноя-2018 10:32

[Цитировать]

Зои / Zoe Год выпуска: 2018
Жанр: Фантастика, мелодрама
Выпущено: США, Global Road Entertainment, Scott Free Productions
Режиссер: Дрейк Доримус
В ролях: Леа Сейду, Рашида Джонс, Эван МакГрегор, Тео Джеймс, Мэттью Грей Гублер, Миранда Отто, Кристина Агилера, Джордана Лахойя, Хелен Джонс, Сара Левески
О фильме: Зои и Коул - ученые будущего, которые разрабатывают идеальных романтических партнеров - синтетиков. Их цель - избавить людей от одиночества и неразделенной любви. Но чем дальше они продвигаются в своих экспериментах, тем сомнительнее выглядят результаты их работы...

Качество: BDRip 720p
Видео: MPEG-4 AVC, 5205 Кбит/с, 1280x536, 23.976 кадр/с
Аудио: Русский, английский (AC3, 6 ch, 384 Кбит/с)
Продолжительность: 01:44:14
Перевод: Дублированный [iTunes]
Субтитры: Английские

Скриншоты


MediaInfo

General
Уникальный идентификатор : 193262437895306688086566106878736149528 (0x9164FDDB40C3413DBDFD1C7A47912C18)
Полное имя : C:\Кино\Zoe.2018.x264.BDRip.720p.Rus.Eng.BLUEBIRD.mkv
Формат : Matroska
Версия формата : Version 4 / Version 2
Размер файла : 4.54 GiB
Продолжительность : 1 h 44 min
Общий поток : 6 230 kb/s
Название фильма : Zoe.2018.x264.BDRip.720p.Rus.Eng.BLUEBIRD
Дата кодирования : UTC 2018-11-11 08:48:07
Программа кодирования : mkvmerge v7.9.0 ('Birds') 64bit
Библиотека кодирования : libebml v1.3.1 + libmatroska v1.4.2
Video
Идентификатор : 1
Формат : AVC
Формат/Информация : Advanced Video Codec
Профиль формата : High@L4.1
Настройки формата : CABAC / 11 Ref Frames
Параметр CABAC формата : Yes
Параметр RefFrames формата : 11 frames
Идентификатор кодека : V_MPEG4/ISO/AVC
Продолжительность : 1 h 44 min
Битрейт : 5 205 kb/s
Ширина : 1 280 pixels
Высота : 536 pixels
Соотношение сторон : 2.40:1
Режим частоты кадров : Constant
Частота кадров : 23.976 (24000/1001) FPS
Цветовое пространство : YUV
Субдискретизация насыщенности : 4:2:0
Битовая глубина : 8 bits
Тип развёртки : Progressive
Бит/(Пиксели*Кадры) : 0.316
Размер потока : 3.79 GiB (84%)
Заголовок : Zoe.2018.x264.BDRip.720p.Rus.Eng.BLUEBIRD
Библиотека кодирования : x264 core 157 r2935 545de2f
Настройки программы : cabac=1 / ref=11 / deblock=1:-3:-3 / analyse=0x3:0x113 / me=umh / subme=11 / psy=1 / psy_rd=1.05:0.15 / mixed_ref=1 / me_range=32 / chroma_me=1 / trellis=2 / 8x8dct=1 / cqm=0 / deadzone=21,11 / fast_pskip=0 / chroma_qp_offset=-3 / threads=6 / lookahead_threads=1 / sliced_threads=0 / nr=0 / decimate=1 / interlaced=0 / bluray_compat=0 / constrained_intra=0 / bframes=9 / b_pyramid=2 / b_adapt=2 / b_bias=0 / direct=3 / weightb=1 / open_gop=0 / weightp=2 / keyint=240 / keyint_min=23 / scenecut=40 / intra_refresh=0 / rc_lookahead=80 / rc=crf / mbtree=0 / crf=17.2 / qcomp=0.60 / qpmin=0 / qpmax=69 / qpstep=4 / vbv_maxrate=62500 / vbv_bufsize=78125 / crf_max=0.0 / nal_hrd=none / filler=0 / ip_ratio=1.30 / pb_ratio=1.20 / aq=3:0.80
Язык : English
Default : Yes
Forced : No
Audio #1
Идентификатор : 2
Формат : AC-3
Формат/Информация : Audio Coding 3
Идентификатор кодека : A_AC3
Продолжительность : 1 h 43 min
Вид битрейта : Constant
Битрейт : 384 kb/s
Каналы : 6 channels
Расположение каналов : Front: L C R, Side: L R, LFE
Частота : 48.0 kHz
Частота кадров : 31.250 FPS (1536 SPF)
Битовая глубина : 16 bits
Метод сжатия : Lossy
Размер потока : 285 MiB (6%)
Заголовок : Дублированный (iTunes)
Язык : Russian
ServiceKind/String : Complete Main
Default : Yes
Forced : No
Audio #2
Идентификатор : 3
Формат : AC-3
Формат/Информация : Audio Coding 3
Идентификатор кодека : A_AC3
Продолжительность : 1 h 44 min
Вид битрейта : Constant
Битрейт : 640 kb/s
Каналы : 6 channels
Расположение каналов : Front: L C R, Side: L R, LFE
Частота : 48.0 kHz
Частота кадров : 31.250 FPS (1536 SPF)
Битовая глубина : 16 bits
Метод сжатия : Lossy
Размер потока : 477 MiB (10%)
Язык : English
ServiceKind/String : Complete Main
Default : No
Forced : No
Text #1
Идентификатор : 4
Формат : UTF-8
Идентификатор кодека : S_TEXT/UTF8
Идентификатор кодека/Информация : UTF-8 Plain Text
Продолжительность : 1 h 36 min
Битрейт : 51 b/s
ElementCount : 1112
Размер потока : 36.6 KiB (0%)
Заголовок : full
Язык : English
Default : No
Forced : No
Text #2
Идентификатор : 5
Формат : UTF-8
Идентификатор кодека : S_TEXT/UTF8
Идентификатор кодека/Информация : UTF-8 Plain Text
Продолжительность : 1 h 43 min
Битрейт : 56 b/s
ElementCount : 1332
Размер потока : 42.6 KiB (0%)
Заголовок : SDH
Язык : English
Default : No
Forced : No
Menu
00:00:00.000 : :Chapter 01
00:04:13.461 : :Chapter 02
00:10:58.115 : :Chapter 03
00:16:10.094 : :Chapter 04
00:20:28.435 : :Chapter 05
00:25:21.853 : :Chapter 06
00:30:06.638 : :Chapter 07
00:36:25.933 : :Chapter 08
00:42:09.485 : :Chapter 09
00:44:45.724 : :Chapter 10
00:51:32.047 : :Chapter 11
00:57:27.652 : :Chapter 12
01:04:16.018 : :Chapter 13
01:08:08.000 : :Chapter 14
01:13:20.354 : :Chapter 15
01:18:10.811 : :Chapter 16
01:23:29.671 : :Chapter 17
01:30:35.680 : :Chapter 18
01:38:23.772 : :Chapter 19
[Профиль] [ЛС]
Показать сообщения:    
Ответить на тему

Текущее время: 17-Фев 20:01

Часовой пояс: UTC + 3



Вы не можете начинать темы
Вы не можете отвечать на сообщения
Вы не можете редактировать свои сообщения
Вы не можете удалять свои сообщения
Вы не можете голосовать в опросах
Вы не можете прикреплять файлы к сообщениям
Вы не можете скачивать файлы