Зои / Zoe (2018) BDRip 1080p | iTunes

Reply to topic
 
Author Message

Monk ®

Gender: Male

Longevity: 8 months 8 days

Posts: 7553

Location: Казань

Post 22-Nov-2018 10:35

[Quote]

Зои / Zoe Год выпуска: 2018
Жанр: Фантастика, мелодрама
Выпущено: США, Global Road Entertainment, Scott Free Productions
Режиссер: Дрейк Доримус
В ролях: Леа Сейду, Рашида Джонс, Эван МакГрегор, Тео Джеймс, Мэттью Грей Гублер, Миранда Отто, Кристина Агилера, Джордана Лахойя, Хелен Джонс, Сара Левески
О фильме: Зои и Коул - ученые будущего, которые разрабатывают идеальных романтических партнеров - синтетиков. Их цель - избавить людей от одиночества и неразделенной любви. Но чем дальше они продвигаются в своих экспериментах, тем сомнительнее выглядят результаты их работы...

Качество: BDRip 1080p
Видео: MPEG-4 AVC, 11.1 Мбит/с, 1920x804, 23.976 кадр/с
Аудио: Русский, английский (AC3, 6 ch, 384 Кбит/с)
Продолжительность: 01:44:14
Перевод: Дублированный [iTunes]
Субтитры: Английские

Скриншоты



MediaInfo

Общее
Уникальный идентификатор : 213555862889893323335923559155623998582 (0xA0A95CF5088059A1859978165CC33476)
Полное имя : D:\ФИЛЬМЫ\Zoe.2018.x264.BDRip.1080p.Rus.Eng.BLUEBIRD.mkv
Формат : Matroska
Версия формата : Version 4 / Version 2
Размер файла : 9,44 Гбайт
Продолжительность : 1 ч. 44 м.
Общий поток : 13,0 Мбит/сек
Название фильма : Zoe.2018.x264.BDRip.1080p.Rus.Eng.BLUEBIRD
Дата кодирования : UTC 2018-11-18 21:14:48
Программа кодирования : mkvmerge v7.9.0 ('Birds') 64bit
Библиотека кодирования : libebml v1.3.1 + libmatroska v1.4.2
Видео
Идентификатор : 1
Формат : AVC
Формат/Информация : Advanced Video Codec
Профиль формата : High@L4.1
Настройки формата : CABAC / 5 Ref Frames
Параметр CABAC формата : Да
Параметр RefFrames формата : 5 кадров
Идентификатор кодека : V_MPEG4/ISO/AVC
Продолжительность : 1 ч. 44 м.
Битрейт : 11,1 Мбит/сек
Ширина : 1920 пикселей
Высота : 804 пикселя
Соотношение сторон : 2,40:1
Режим частоты кадров : Постоянный
Частота кадров : 23,976 (24000/1001) кадра/сек
Цветовое пространство : YUV
Субдискретизация насыщенности : 4:2:0
Битовая глубина : 8 бит
Тип развёртки : Прогрессивная
Бит/(Пиксели*Кадры) : 0.299
Размер потока : 8,06 Гбайт (85%)
Заголовок : Zoe.2018.x264.BDRip.1080p.Rus.Eng.BLUEBIRD
Библиотека кодирования : x264 core 157 r2935 545de2f
Настройки программы : cabac=1 / ref=5 / deblock=1:-3:-3 / analyse=0x3:0x113 / me=umh / subme=11 / psy=1 / psy_rd=1.05:0.15 / mixed_ref=1 / me_range=32 / chroma_me=1 / trellis=2 / 8x8dct=1 / cqm=0 / deadzone=21,11 / fast_pskip=0 / chroma_qp_offset=-3 / threads=6 / lookahead_threads=1 / sliced_threads=0 / nr=0 / decimate=0 / interlaced=0 / bluray_compat=0 / constrained_intra=0 / bframes=8 / b_pyramid=2 / b_adapt=2 / b_bias=0 / direct=3 / weightb=1 / open_gop=0 / weightp=2 / keyint=240 / keyint_min=23 / scenecut=40 / intra_refresh=0 / rc_lookahead=80 / rc=crf / mbtree=0 / crf=18.8 / qcomp=0.60 / qpmin=0 / qpmax=69 / qpstep=4 / vbv_maxrate=62500 / vbv_bufsize=78125 / crf_max=0.0 / nal_hrd=none / filler=0 / ip_ratio=1.30 / pb_ratio=1.20 / aq=3:0.80 / zones=3354,3449,q=13/29929,30263,q=13/30587,31596,q=13/56994,57535,q=13/58167,59752,q=13/141435,149946,b=0.2
Язык : English
Default : Да
Forced : Нет
Аудио #1
Идентификатор : 2
Формат : AC-3
Формат/Информация : Audio Coding 3
Идентификатор кодека : A_AC3
Продолжительность : 1 ч. 43 м.
Вид битрейта : Постоянный
Битрейт : 384 Кбит/сек
Каналы : 6 каналов
Расположение каналов : Front: L C R, Side: L R, LFE
Частота : 48,0 КГц
Частота кадров : 31,250 кадров/сек (1536 SPF)
Битовая глубина : 16 бит
Метод сжатия : С потерями
Размер потока : 285 Мбайт (3%)
Заголовок : Дублированный (iTunes)
Язык : Russian
ServiceKind/String : Complete Main
Default : Да
Forced : Нет
Аудио #2
Идентификатор : 3
Формат : DTS
Формат/Информация : Digital Theater Systems
Идентификатор кодека : A_DTS
Продолжительность : 1 ч. 44 м.
Вид битрейта : Постоянный
Битрейт : 1509 Кбит/сек
Каналы : 6 каналов
Расположение каналов : Front: L C R, Side: L R, LFE
Частота : 48,0 КГц
Частота кадров : 93,750 кадра/сек (512 SPF)
Битовая глубина : 24 бит
Метод сжатия : С потерями
Размер потока : 1,10 Гбайт (12%)
Язык : English
Default : Нет
Forced : Нет
Текст #1
Идентификатор : 4
Формат : UTF-8
Идентификатор кодека : S_TEXT/UTF8
Идентификатор кодека/Информация : UTF-8 Plain Text
Продолжительность : 1 ч. 36 м.
Битрейт : 51 бит/сек
ElementCount : 1112
Размер потока : 36,6 Кбайт (0%)
Заголовок : full
Язык : English
Default : Нет
Forced : Нет
Текст #2
Идентификатор : 5
Формат : UTF-8
Идентификатор кодека : S_TEXT/UTF8
Идентификатор кодека/Информация : UTF-8 Plain Text
Продолжительность : 1 ч. 43 м.
Битрейт : 56 бит/сек
ElementCount : 1332
Размер потока : 42,6 Кбайт (0%)
Заголовок : SDH
Язык : English
Default : Нет
Forced : Нет
Меню
00:00:00.000 : :Chapter 01
00:04:13.461 : :Chapter 02
00:10:58.115 : :Chapter 03
00:16:10.094 : :Chapter 04
00:20:28.435 : :Chapter 05
00:25:21.853 : :Chapter 06
00:30:06.638 : :Chapter 07
00:36:25.933 : :Chapter 08
00:42:09.485 : :Chapter 09
00:44:45.724 : :Chapter 10
00:51:32.047 : :Chapter 11
00:57:27.652 : :Chapter 12
01:04:16.018 : :Chapter 13
01:08:08.000 : :Chapter 14
01:13:20.354 : :Chapter 15
01:18:10.811 : :Chapter 16
01:23:29.671 : :Chapter 17
01:30:35.680 : :Chapter 18
01:38:23.772 : :Chapter 19
[Profile] [PM]
Display posts:    
Reply to topic

Current time is: 23-Jul 11:49

All times are UTC + 3



You cannot post new topics in this forum
You cannot reply to topics in this forum
You cannot edit your posts in this forum
You cannot delete your posts in this forum
You cannot vote in polls in this forum
You cannot attach files in this forum
You cannot download files in this forum