Зои / Zoe (2018) BDRip AVC | iTunes

Ответить на тему
 
Автор Сообщение

Monk ®

Пол: Мужской

Стаж: 3 месяца 1 день

Сообщений: 3233

Откуда: Казань

Создавать темы 22-Ноя-2018 10:36

[Цитировать]

Зои / Zoe Год выпуска: 2018
Жанр: Фантастика, мелодрама
Выпущено: США, Global Road Entertainment, Scott Free Productions
Режиссер: Дрейк Доримус
В ролях: Леа Сейду, Рашида Джонс, Эван МакГрегор, Тео Джеймс, Мэттью Грей Гублер, Миранда Отто, Кристина Агилера, Джордана Лахойя, Хелен Джонс, Сара Левески
О фильме: Зои и Коул - ученые будущего, которые разрабатывают идеальных романтических партнеров - синтетиков. Их цель - избавить людей от одиночества и неразделенной любви. Но чем дальше они продвигаются в своих экспериментах, тем сомнительнее выглядят результаты их работы...

Качество: BDRip AVC
Видео: MPEG-4 AVC, ~ 1988 Кбит/с, 1024x428
Аудио: Русский (AC3, 6 ch, 384 Кбит/с), английский (AC3, 6 ch, 448 Кбит/с)
Продолжительность: 01:44:14
Перевод: Дублированный [iTunes]
Субтитры: Английские

Скриншоты



MediaInfo

Общее
Уникальный идентификатор : 136305629624894221451095714764186165624 (0x668B8265F63A1E32878FB0AA3A5FA178)
Полное имя : F:\OlLanDGroup\Zoe.2018.BDRip(AVC).OlLanDGroup.mkv
Формат : Matroska
Версия формата : Version 4 / Version 2
Размер файла : 2,05 Гбайт
Продолжительность : 1 ч. 44 м.
Общий поток : 2821 Кбит/сек
Название фильма : Zoe.2018 #TorpedoUK#
Дата кодирования : UTC 2018-11-09 12:14:20
Программа кодирования : mkvmerge v25.0.0 ('Prog Noir') 64-bit
Библиотека кодирования : libebml v1.3.6 + libmatroska v1.4.9
Обложка : Yes
Attachments : cover_land.jpg / small_cover.jpg / small_cover_land.jpg / cover.jpg
Видео
Идентификатор : 1
Формат : AVC
Формат/Информация : Advanced Video Codec
Профиль формата : High@L4.1
Параметр CABAC формата : Да
Параметр ReFrames формата : 10 кадров
Идентификатор кодека : V_MPEG4/ISO/AVC
Продолжительность : 1 ч. 44 м.
Битрейт : 1988 Кбит/сек
Ширина : 1024 пикселя
Высота : 428 пикселей
Соотношение сторон : 2,40:1
Режим частоты кадров : Постоянный
Частота кадров : 23,976 (24000/1001) кадра/сек
Цветовое пространство : YUV
Субдискретизация насыщенности : 4:2:0
Битовая глубина : 8 бит
Тип развёртки : Прогрессивная
Бит/(Пиксели*Кадры) : 0.189
Размер потока : 1,45 Гбайт (70%)
Библиотека кодирования : x264 core 146 r2538 121396c
Настройки программы : cabac=1 / ref=10 / deblock=1:-2:-3 / analyse=0x3:0x113 / me=umh / subme=11 / psy=1 / psy_rd=0.95:0.07 / mixed_ref=1 / me_range=48 / chroma_me=1 / trellis=2 / 8x8dct=1 / cqm=0 / deadzone=21,11 / fast_pskip=1 / chroma_qp_offset=-3 / threads=6 / lookahead_threads=1 / sliced_threads=0 / nr=0 / decimate=1 / interlaced=0 / bluray_compat=0 / constrained_intra=0 / bframes=11 / b_pyramid=2 / b_adapt=2 / b_bias=0 / direct=3 / weightb=1 / open_gop=0 / weightp=2 / keyint=240 / keyint_min=23 / scenecut=40 / intra_refresh=0 / rc_lookahead=40 / rc=2pass / mbtree=0 / bitrate=1988 / ratetol=1.0 / qcomp=0.60 / qpmin=0 / qpmax=69 / qpstep=4 / cplxblur=20.0 / qblur=0.5 / vbv_maxrate=50000 / vbv_bufsize=62500 / nal_hrd=none / filler=0 / ip_ratio=1.40 / pb_ratio=1.30 / aq=1:1.00
Язык : English
Default : Да
Forced : Нет
Аудио #1
Идентификатор : 2
Формат : AC-3
Формат/Информация : Audio Coding 3
Расширение режима : CM (complete main)
Параметр Endianness формата : Big
Идентификатор кодека : A_AC3
Продолжительность : 1 ч. 43 м.
Вид битрейта : Постоянный
Битрейт : 384 Кбит/сек
Каналы : 6 каналов
Расположение каналов : Front: L C R, Side: L R, LFE
Частота : 48,0 КГц
Частота кадров : 31,250 кадров/сек (1536 spf)
Битовая глубина : 16 бит
Метод сжатия : С потерями
Размер потока : 285 Мбайт (14%)
Заголовок : DUB [iTunes]
Язык : Russian
Default : Да
Forced : Нет
Аудио #2
Идентификатор : 3
Формат : AC-3
Формат/Информация : Audio Coding 3
Расширение режима : CM (complete main)
Параметр Endianness формата : Big
Идентификатор кодека : A_AC3
Продолжительность : 1 ч. 44 м.
Вид битрейта : Постоянный
Битрейт : 448 Кбит/сек
Каналы : 6 каналов
Расположение каналов : Front: L C R, Side: L R, LFE
Частота : 48,0 КГц
Частота кадров : 31,250 кадров/сек (1536 spf)
Битовая глубина : 16 бит
Метод сжатия : С потерями
Размер потока : 334 Мбайт (16%)
Заголовок : [Original]
Язык : English
Default : Нет
Forced : Нет
Текст #1
Идентификатор : 4
Формат : UTF-8
Идентификатор кодека : S_TEXT/UTF8
Идентификатор кодека/Информация : UTF-8 Plain Text
Продолжительность : 1 ч. 36 м.
Битрейт : 51 бит/сек
Count of elements : 1112
Размер потока : 36,6 Кбайт (0%)
Заголовок : Full
Язык : English
Default : Нет
Forced : Нет
Текст #2
Идентификатор : 5
Формат : UTF-8
Идентификатор кодека : S_TEXT/UTF8
Идентификатор кодека/Информация : UTF-8 Plain Text
Продолжительность : 1 ч. 43 м.
Битрейт : 56 бит/сек
Count of elements : 1332
Размер потока : 42,6 Кбайт (0%)
Заголовок : SDH
Язык : English
Default : Нет
Forced : Нет
Меню
00:00:00.000 : en:Chapter 01
00:04:13.461 : en:Chapter 02
00:10:58.115 : en:Chapter 03
00:16:10.094 : en:Chapter 04
00:20:28.435 : en:Chapter 05
00:25:21.853 : en:Chapter 06
00:30:06.638 : en:Chapter 07
00:36:25.933 : en:Chapter 08
00:42:09.485 : en:Chapter 09
00:44:45.724 : en:Chapter 10
00:51:32.047 : en:Chapter 11
00:57:27.652 : en:Chapter 12
01:04:16.018 : en:Chapter 13
01:08:08.000 : en:Chapter 14
01:13:20.354 : en:Chapter 15
01:18:10.811 : en:Chapter 16
01:23:29.671 : en:Chapter 17
01:30:35.680 : en:Chapter 18
01:38:23.772 : en:Chapter 19
[Профиль] [ЛС]
Показать сообщения:    
Ответить на тему

Текущее время: 16-Фев 11:17

Часовой пояс: UTC + 3



Вы не можете начинать темы
Вы не можете отвечать на сообщения
Вы не можете редактировать свои сообщения
Вы не можете удалять свои сообщения
Вы не можете голосовать в опросах
Вы не можете прикреплять файлы к сообщениям
Вы не можете скачивать файлы