Доктор Рихтер. Продолжение [2 сезон: 1-16 серии из 16] (2018) HDTVRip от Files-x

Reply to topic
 
Author Message

Nicodem ®

Gender: Male

Longevity: 7 months 8 days

Posts: 178

Post 23-Nov-2018 18:49

[Quote]

Доктор Рихтер. Продолжение
Год выпуска: 2018
Жанр: Драма, детектив, медицина, адаптация
Выпущено: Россия, Нон-стоп Продакшн, Кнокомпания "Перевал"
Режиссер: Максим Демченко, Андрей Прошкин
В ролях: Алексей Серебряков, Дмитрий Ендальцев, Полина Чернышова, Павел Чинарёв, Анна Михалкова, Виталий Хаев, Мария Миронова (II), Олег Васильков, Юлия Акимова, Мария Смольникова, Михаил Пореченков, Филипп Гуревич, Андрей Кузичёв, Полина Ватага, Евгения Бурдихина, Фаррух Гафуров, Рамиля Искандер, Евгений Муравич, Полина Агуреева, Сергей Угрюмов, Юлия Кудояр, Сергей Никоненко, Роман Мадянов, Светлана Немоляева, Дмитрий Певцов, Эммануил Виторган, Юлия Ауг
О фильме: В продолжении популярного сериала доктор Андрей Александрович Рихтер и сотрудники возглавляемого им отделения клинической диагностики вновь разгадывают, казалось бы, неразрешимые медицинские загадки и спасают человеческие жизни. Рихтер – настоящий профессионал и даже гений своего дела. Его интересуют только самые сложные, запутанные случаи, рутинная же работа в больничной поликлинике навевает скуку и раздражает. Правильные диагнозы ему позволяет ставить не только глубокое знание медицины, но также понимание человеческой психологии, своеобразная дедукция и врачебная интуиция. Его история – это спор науки с человеческими слабостями, разума – с самой природой.

Качество: HDTVRip
Видео: XviD, ~ 1500 Кбит/с, 720x400, 25 кадр/с
Аудио: AC3, 2 ch, 192 Кбит/с
Продолжительность: 16 x ~ 00:50:00
Перевод: Не требуется
Cубтитры: нет

Скриншоты


MediaInfo

General
Complete name : C:\Users\DOM\Downloads\Доктор Рихтер. Продолжение.2018.HDTVRip.Files-x\01.Доктор Рихтер. Продолжение.2018.HDTVRip.Files-x.avi
Format : AVI
Format/Info : Audio Video Interleave
File size : 632 MiB
Duration : 51mn 54s
Overall bit rate : 1 701 Kbps
Writing application : VirtualDubMod 1.5.10.3 | www.virtualdub-fr.org || (build 2550/release)
Writing library : VirtualDubMod build 2550/release
Video
ID : 0
Format : MPEG-4 Visual
Format profile : Advanced Simple@L5
Format settings, BVOP : 1
Format settings, QPel : No
Format settings, GMC : No warppoints
Format settings, Matrix : Custom
Codec ID : XVID
Codec ID/Hint : XviD
Duration : 51mn 54s
Bit rate : 1 500 Kbps
Width : 720 pixels
Height : 400 pixels
Display aspect ratio : 16:9
Frame rate : 25.000 fps
Color space : YUV
Chroma subsampling : 4:2:0
Bit depth : 8 bits
Scan type : Progressive
Compression mode : Lossy
Bits/(Pixel*Frame) : 0.208
Stream size : 557 MiB (88%)
Writing library : XviD 73
Audio
ID : 1
Format : AC-3
Format/Info : Audio Coding 3
Mode extension : CM (complete main)
Codec ID : 2000
Duration : 51mn 54s
Bit rate mode : Constant
Bit rate : 192 Kbps
Channel(s) : 2 channels
Channel positions : Front: L R
Sampling rate : 48.0 KHz
Bit depth : 16 bits
Compression mode : Lossy
Stream size : 71.3 MiB (11%)
Alignment : Split accross interleaves
Interleave, duration : 40 ms (1.00 video frame)
Interleave, preload duration : 500 ms
Релиз от:
[Profile] [PM]
Display posts:    
Reply to topic

Current time is: 26-Jun 13:57

All times are UTC + 3



You cannot post new topics in this forum
You cannot reply to topics in this forum
You cannot edit your posts in this forum
You cannot delete your posts in this forum
You cannot vote in polls in this forum
You cannot attach files in this forum
You cannot download files in this forum